<?xml version="1.0" standalone="no"?>
<!DOCTYPE svg PUBLIC "-//W3C//DTD SVG 1.1//EN" "http://www.w3.org/Graphics/SVG/1.1/DTD/svg11.dtd">
<svg xmlns="http://www.w3.org/2000/svg"><metadata>This SVG WebFont was generated by YouWorkForThem.
Copyright Â© 2015 by Mattox Shuler. All rights reserved.</metadata><defs><font horiz-adv-x="1624" id="ywftsvg"><font-face ascent="1638" bbox="-811 -688 3205 2230" cap-height="1434" descent="-410" font-family="" font-stretch="normal" font-weight="500" panose-1="0 0 6 0 0 0 0 0 0 0" underline-position="0" underline-thickness="0" unicode-range="U+0020-FB02" units-per-em="2048" x-height="1122"/><missing-glyph d="M848 1577v-2069h-655v2069h655zM688 1438h-340v-68h133v-76h-135v-69h342v69h-135v76h135v68zM553 1171h-207v-215h342v70h-135v145zM481 1102v-76h-67v76h67zM688 901h-342v-70h135v-75h-135v-68h207v143h135v70zM688 776h-67v-137h-275v-70h342v207zM688 524h-207v-116 h72v49h68v-99h-207v166h-68v-233h342v233zM688 166h-342v-234h342v234zM621 98v-98h-207v98h207zM688 -115h-342v-69h143l-143 -97v-67h342v67h-211l146 97h65v69z" horiz-adv-x="1034"/><glyph d="M707 1389q-213 0 -213 -175v-92h493v-188h-489v-934h-240v934h-217v188h217v62q0 184 113.5 278t292.5 94q197 0 335 -88l-71 -149q-106 70 -221 70zM1329.5 1276q-65.5 0 -109.5 39t-44 94q0 57 44 95t109.5 38t108.5 -38t43 -95q0 -55 -43 -94t-108.5 -39zM1212 0v1122 h238v-1122h-238z" glyph-name="uniFB01" horiz-adv-x="1636" unicode="fi"/><glyph d="M707 1389q-213 0 -213 -175v-92h493v-188h-489v-934h-240v934h-217v188h217v62q0 184 113.5 278t292.5 94q197 0 335 -88l-71 -149q-106 70 -221 70zM1212 1516h238v-1516h-238v1516z" glyph-name="uniFB02" horiz-adv-x="1640" unicode="fl"/><glyph d="M848 1577v-2069h-655v2069h655zM688 1438h-340v-68h133v-76h-135v-69h342v69h-135v76h135v68zM553 1171h-207v-215h342v70h-135v145zM481 1102v-76h-67v76h67zM688 901h-342v-70h135v-75h-135v-68h207v143h135v70zM688 776h-67v-137h-275v-70h342v207zM688 524h-207v-116 h72v49h68v-99h-207v166h-68v-233h342v233zM688 166h-342v-234h342v234zM621 98v-98h-207v98h207zM688 -115h-342v-69h143l-143 -97v-67h342v67h-211l146 97h65v69z" glyph-name=".notdef" horiz-adv-x="1034"/><glyph glyph-name="glyph1" horiz-adv-x="0"/><glyph glyph-name="glyph2" horiz-adv-x="681"/><glyph glyph-name="space" horiz-adv-x="614" unicode=" "/><glyph d="M176 1434h293l-43 -1004h-205zM324 -23q-70 0 -114 40t-44 100q0 61 45 102t112.5 41t111.5 -41t44 -102q0 -59 -43.5 -99.5t-111.5 -40.5z" glyph-name="exclam" horiz-adv-x="661" unicode="!"/><glyph d="M164 1516h207v-601h-207v601zM602 1516h207v-601h-207v601z" glyph-name="quotedbl" horiz-adv-x="974" unicode="&quot;"/><glyph d="M1847 905h-348l-100 -350h377v-168h-426l-111 -387h-207l111 387h-533l-110 -387h-207l110 387h-305v168h353l100 350h-381v168h428l104 361h207l-104 -361h534l103 361h207l-103 -361h301v-168zM1192 555l100 350h-534l-101 -350h535z" glyph-name="numbersign" horiz-adv-x="1945" unicode="#"/><glyph d="M1704 444q0 -197 -181.5 -316.5t-508.5 -129.5v-211h-172v213q-451 31 -748 289l154 164q244 -211 594 -242v418q-154 14 -266.5 36.5t-217 64.5t-159 113.5t-54.5 170.5q0 195 196 303t501 119v190h172v-194q375 -31 622 -232l-151 -162q-178 154 -471 183v-379 q133 -12 230 -28.5t188.5 -45.5t147.5 -71t90 -105.5t34 -147.5zM395 1034q0 -49 31 -81.5t97.5 -51t136 -29t182.5 -18.5v373q-86 -2 -160 -12.5t-141.5 -32t-106.5 -59.5t-39 -89zM1014 207q442 12 442 217q0 94 -99.5 131t-342.5 59v-407z" glyph-name="dollar" horiz-adv-x="1802" unicode="$"/><glyph d="M450.5 797q-161.5 0 -266 95t-104.5 236.5t104.5 236.5t266 95t265 -95t103.5 -236.5t-103.5 -236.5t-265 -95zM1399 1434h194l-1112 -1434h-194zM450.5 944q92.5 0 149.5 48t57 136.5t-57 137.5t-149.5 49t-149.5 -49t-57 -137.5t57 -136.5t149.5 -48zM1430 -27 q-164 0 -267.5 95.5t-103.5 236.5t103.5 236.5t267.5 95.5q162 0 265 -95.5t103 -236.5t-103 -236.5t-265 -95.5zM1429.5 119q92.5 0 148.5 49t56 137t-56 136t-148.5 48t-149.5 -48t-57 -136t57 -137t149.5 -49z" glyph-name="percent" horiz-adv-x="1878" unicode="%"/><glyph d="M1847 0h-334l-129 96q-207 -137 -532 -137q-313 0 -523 137t-210 342q0 123 78.5 226.5t218.5 160.5q-125 115 -125 256q0 174 150.5 284t396.5 110q457 0 641 -377l-207 -84q-72 139 -175.5 203.5t-256.5 64.5q-143 0 -225.5 -52t-82.5 -143q0 -16 4.5 -32.5t8.5 -29.5 t15 -28.5t19.5 -27t27 -28.5t29.5 -27.5t36.5 -31t39 -30.5t45 -34.5t48.5 -37.5l561 -418q88 125 90 316h227q-10 -266 -149 -442zM866 152q207 0 344 73l-637 473l-24 19q-182 -88 -182 -258q0 -147 142 -227t357 -80z" glyph-name="ampersand" horiz-adv-x="1849" unicode="&amp;"/><glyph d="M164 1516h207v-601h-207v601z" glyph-name="quotesingle" horiz-adv-x="536" unicode="'"/><glyph d="M324 594q0 -268 133 -455.5t358 -259.5l-72 -164q-283 74 -457.5 313.5t-174.5 565.5t175 565.5t457 313.5l72 -164q-225 -72 -358 -258.5t-133 -456.5z" glyph-name="parenleft" horiz-adv-x="899" unicode="("/><glyph d="M578 594q0 270 -134.5 455.5t-359.5 259.5l72 164q283 -74 459 -313.5t176 -565.5t-176.5 -565.5t-458.5 -313.5l-72 164q225 72 359.5 259.5t134.5 455.5z" glyph-name="parenright" horiz-adv-x="899" unicode=")"/><glyph d="M752 545l-150 350l-151 -350l-172 100l225 305l-377 -45v203l377 -43l-225 303l172 98l151 -350l150 350l174 -98l-228 -303l377 43v-203l-377 45l228 -305z" glyph-name="asterisk" horiz-adv-x="1202" unicode="*"/><glyph d="M1346 709v-187h-488v-434h-201v434h-491v187h491v434h201v-434h488z" glyph-name="plus" horiz-adv-x="1511" unicode="+"/><glyph d="M287 260q72 0 117 -48t45 -122q0 -98 -56.5 -212t-156.5 -191l-64 67q127 129 145 234q-10 -10 -41 -11q-61 0 -102 40t-41 102q0 59 43 100t111 41z" glyph-name="comma" horiz-adv-x="573" unicode=","/><glyph d="M1067 514h-907v203h907v-203z" glyph-name="hyphen" horiz-adv-x="1226" unicode="-"/><glyph d="M281 -23q-68 0 -112 40t-44 100q0 61 44 102t111.5 41t112.5 -41t45 -102q0 -59 -43.5 -99.5t-113.5 -40.5z" glyph-name="period" horiz-adv-x="563" unicode="."/><glyph d="M324 -205h-265l1074 1802h266z" glyph-name="slash" horiz-adv-x="1456" unicode="/"/><glyph d="M966.5 -43q-399.5 0 -624.5 202.5t-225 557t225 557.5t624.5 203t625 -203t225.5 -557.5t-225.5 -557t-625 -202.5zM966.5 174q282.5 0 441.5 139.5t159 403.5t-159 403.5t-441.5 139.5t-441 -139.5t-158.5 -403.5t158.5 -403.5t441 -139.5z" glyph-name="zero" horiz-adv-x="1933" unicode="0"/><glyph d="M500 0v1149q-170 -133 -441 -176v213q262 39 500 248h186v-1434h-245z" glyph-name="one" horiz-adv-x="962" unicode="1"/><glyph d="M127 1124q98 156 291.5 253.5t433.5 97.5q174 0 324.5 -47.5t252 -148.5t101.5 -239q0 -172 -144.5 -281.5t-424.5 -201.5q-502 -174 -566 -352h1168v-205h-1473v113q33 190 223.5 352t507.5 270q86 31 127 45.5t106.5 41t96.5 46t66.5 47t49 57t13.5 64.5 q0 113 -129 174.5t-307 61.5q-340 0 -555 -275z" glyph-name="two" horiz-adv-x="1675" unicode="2"/><glyph d="M279 418q78 -121 231.5 -188.5t353.5 -67.5q199 0 333 64.5t134 191.5q0 88 -69.5 140t-178 71.5t-266.5 19.5h-199v193h199q201 0 334 54t133 161q0 72 -66.5 122t-160.5 71.5t-203 21.5q-385 0 -553 -240l-190 117q238 326 731 326q293 0 493.5 -105.5t200.5 -290.5 q0 -133 -103.5 -223t-246.5 -104q164 -23 284.5 -109t120.5 -244q0 -205 -206.5 -322.5t-520.5 -117.5q-266 0 -467.5 92t-322.5 254z" glyph-name="three" horiz-adv-x="1705" unicode="3"/><glyph d="M1706 526v-196h-301v-330h-244v330h-1112v151l1137 953h219v-908h301zM393 526h770v643z" glyph-name="four" horiz-adv-x="1775" unicode="4"/><glyph d="M252 426q96 -115 263 -186.5t370 -71.5q221 0 353 68.5t132 208t-138 210t-380 70.5q-254 0 -510 -107l-190 78l122 738h1199v-205h-1006l-72 -434q236 125 543 125q188 0 338.5 -50.5t248 -161t97.5 -268.5q0 -209 -195.5 -346t-541.5 -137q-250 0 -456 88t-343 242z " glyph-name="five" horiz-adv-x="1708" unicode="5"/><glyph d="M1055 924q168 0 312 -47.5t243.5 -158t99.5 -265.5q0 -221 -201.5 -358.5t-545.5 -137.5q-393 0 -619.5 205t-226.5 555t226 555t620 205q457 0 696 -250l-162 -144q-195 197 -516 197q-285 0 -449.5 -137t-164.5 -426q0 -35 2 -51q113 121 294 189.5t392 68.5zM963 154 q229 0 364 77.5t135 223.5q0 143 -126 210.5t-332 67.5q-170 0 -334 -62.5t-273 -176.5q107 -340 566 -340z" glyph-name="six" horiz-adv-x="1812" unicode="6"/><glyph d="M397 0l805 1223h-1155v211h1460v-168l-825 -1266h-285z" glyph-name="seven" horiz-adv-x="1546" unicode="7"/><glyph d="M1284 754q164 -18 289 -109.5t125 -249.5q0 -203 -218 -320.5t-573 -117.5q-356 0 -573 118t-217 320q0 158 125 249t288 110q-152 14 -255 100t-103 223q0 186 208 293t527 107q317 0 526 -106.5t209 -293.5q0 -137 -103 -223t-255 -100zM420 1059q0 -115 137 -169 t350 -54t350.5 54t137.5 169t-137.5 170t-350.5 55t-350 -55t-137 -170zM905 150q248 0 392.5 62t144.5 191q0 123 -146.5 188.5t-390.5 65.5q-242 0 -388 -65.5t-146 -188t146 -188t388 -65.5z" glyph-name="eight" horiz-adv-x="1814" unicode="8"/><glyph d="M850 1477q393 0 619.5 -205t226.5 -555t-226.5 -555t-619.5 -205q-457 0 -696 250l161 143q195 -197 516 -196q285 0 450 137t165 426q0 35 -2 51q-113 -121 -294 -189.5t-392 -68.5q-168 0 -312.5 47t-244 157.5t-99.5 266.5q0 221 202 358.5t546 137.5zM809 700 q168 0 333 63.5t273 176.5q-106 340 -565 340q-229 0 -364.5 -78t-135.5 -223q0 -143 126 -211t333 -68z" glyph-name="nine" horiz-adv-x="1812" unicode="9"/><glyph d="M281 862q-68 0 -112 40t-44 102q0 59 44 100t111.5 41t112.5 -41t45 -100q0 -61 -43.5 -101.5t-113.5 -40.5zM281 -23q-68 0 -112 40t-44 100q0 61 44 102t111.5 41t112.5 -41t45 -102q0 -59 -43.5 -99.5t-113.5 -40.5z" glyph-name="colon" horiz-adv-x="563" unicode=":"/><glyph d="M281 862q-68 0 -112 40t-44 102q0 59 44 100t111.5 41t112.5 -41t45 -100q0 -61 -43.5 -101.5t-113.5 -40.5zM281 260q72 0 116.5 -48t44.5 -122q0 -98 -56 -212t-157 -191l-63 67q127 129 145 234q-10 -10 -39 -11q-61 0 -103 40t-42 102q0 59 44 100t110 41z" glyph-name="semicolon" horiz-adv-x="567" unicode=";"/><glyph d="M1272 1143v-203l-871 -332l871 -332v-202l-1088 432v205z" glyph-name="less" horiz-adv-x="1511" unicode="&lt;"/><glyph d="M1346 774h-1180v201h1180v-201zM1346 276h-1180v201h1180v-201z" glyph-name="equal" horiz-adv-x="1511" unicode="="/><glyph d="M240 1143l1087 -432v-205l-1087 -432v202l870 332l-870 332v203z" glyph-name="greater" horiz-adv-x="1511" unicode=">"/><glyph d="M649 432v377q260 18 396.5 73.5t136.5 172.5q0 113 -117 166t-287 53q-356 0 -553 -258l-157 133q119 150 301 238t415 88q166 0 309.5 -44.5t241 -142.5t97.5 -231q0 -176 -159 -277.5t-421 -120.5v-227h-203zM752 -23q-70 0 -114 40t-44 100q0 61 45 102t112.5 41 t111.5 -41t44 -102q0 -59 -43.5 -99.5t-111.5 -40.5z" glyph-name="question" horiz-adv-x="1525" unicode="?"/><glyph d="M1134.5 1409q454.5 0 738.5 -236.5t284 -613.5q0 -258 -86 -380t-238 -122q-117 0 -201 63.5t-110 162.5q-72 -113 -207 -178.5t-289 -65.5q-238 0 -395.5 143.5t-157.5 379t157.5 378.5t395.5 143q154 0 285 -65.5t200 -177.5l52 204h149v-638q0 -250 154 -250 q82 0 134 102t52 301q0 240 -126 413t-330.5 257t-460.5 84t-461 -84t-331 -257t-126 -413q0 -238 126 -411t331 -255.5t461 -82.5q371 0 591 155l54 -80q-223 -172 -645 -172q-455 0 -738.5 235.5t-283.5 610.5q0 377 283.5 613.5t738 236.5zM1083 205q139 0 251 62.5 t173 185.5v213q-61 123 -172.5 185t-251.5 62q-182 0 -292.5 -93t-110.5 -261q0 -164 111.5 -259t291.5 -95z" glyph-name="at" horiz-adv-x="2281" unicode="@"/><glyph d="M1571 0l-185 346h-919l-182 -346h-267l777 1434h270l774 -1434h-268zM578 555h700l-350 664z" glyph-name="A" horiz-adv-x="1857" unicode="A"/><glyph d="M1401 743q178 -12 285.5 -98t107.5 -252q0 -190 -145.5 -291.5t-403.5 -101.5h-1028v1434h969q242 0 384 -95.5t142 -269.5q0 -131 -79.5 -223.5t-231.5 -102.5zM459 1229v-400h688q158 0 239.5 45.5t81.5 156t-81.5 154.5t-239.5 44h-688zM1198 205q170 0 257 48t87 165 t-87 165t-257 48h-739v-426h739z" glyph-name="B" horiz-adv-x="1904" unicode="B"/><glyph d="M997 174q371 0 527 254l227 -113q-106 -164 -302 -261t-458 -97q-403 0 -638.5 204t-235.5 556t237.5 556t646.5 204q254 0 449 -97.5t299 -259.5l-229 -114q-154 254 -523 254q-291 0 -460.5 -140.5t-169.5 -402.5t169.5 -402.5t460.5 -140.5z" glyph-name="C" horiz-adv-x="1822" unicode="C"/><glyph d="M944 1434q401 0 637 -192.5t236 -524.5t-235.5 -524.5t-637.5 -192.5h-727v1434h727zM926 215q291 0 465 130t174 371.5t-174 372t-465 130.5h-463v-1004h463z" glyph-name="D" horiz-adv-x="1933" unicode="D"/><glyph d="M461 215h1184v-215h-1428v1434h1407v-215h-1163v-383h979v-215h-979v-406z" glyph-name="E" horiz-adv-x="1748" unicode="E"/><glyph d="M1620 1217h-1157v-422h979v-220h-979v-575h-246v1434h1403v-217z" glyph-name="F" horiz-adv-x="1685" unicode="F"/><glyph d="M1829 776v-454q-102 -164 -313 -264.5t-496 -100.5q-424 0 -663.5 202.5t-239.5 557t239.5 557.5t659.5 203q471 0 737 -285l-201 -143q-188 213 -534 213q-307 0 -479 -139.5t-172 -405.5t175 -405.5t488 -139.5q416 0 561 229v164h-598v211h836z" glyph-name="G" horiz-adv-x="1943" unicode="G"/><glyph d="M1546 1434h246v-1434h-246v616h-1083v-616h-246v1434h246v-596h1083v596z" glyph-name="H" horiz-adv-x="2007" unicode="H"/><glyph d="M463 0h-246v1434h246v-1434z" glyph-name="I" horiz-adv-x="677" unicode="I"/><glyph d="M205 348q63 -90 152 -131t229 -41q424 0 424 447v811h245v-830q0 -289 -168.5 -468t-500.5 -179q-385 0 -568 248z" glyph-name="J" horiz-adv-x="1443" unicode="J"/><glyph d="M1812 0h-301l-620 725l-428 -346v-379h-246v1434h246v-787l975 787h331l-692 -566z" glyph-name="K" horiz-adv-x="1818" unicode="K"/><glyph d="M463 217h1057v-217h-1303v1434h246v-1217z" glyph-name="L" horiz-adv-x="1562" unicode="L"/><glyph d="M1815 1434h264v-1434h-246v1100l-682 -828h-14l-682 828v-1100h-238v1434h266l666 -822z" glyph-name="M" horiz-adv-x="2293" unicode="M"/><glyph d="M1552 1434h240v-1434h-217l-1120 1130v-1130h-238v1434h262l1073 -1088v1088z" glyph-name="N" horiz-adv-x="2007" unicode="N"/><glyph d="M1007.5 -43q-413.5 0 -652 202.5t-238.5 557t238.5 557.5t652 203t652 -203t238.5 -557.5t-238.5 -557t-652 -202.5zM1008 174q295 0 467 142.5t172 400.5t-172 400.5t-467 142.5t-468 -142.5t-173 -400.5t172 -400.5t469 -142.5z" glyph-name="O" horiz-adv-x="2015" unicode="O"/><glyph d="M1186 1434q264 0 421.5 -124t157.5 -345q0 -223 -156.5 -346t-422.5 -123h-723v-496h-246v1434h969zM1165 707q348 0 348 256t-348 256h-702v-512h702z" glyph-name="P" horiz-adv-x="1841" unicode="P"/><glyph d="M1898 717q0 -397 -292 -600l198 -215l-141 -127l-233 252q-178 -70 -422 -70q-414 0 -652.5 202.5t-238.5 557t238.5 557.5t652 203t652 -203t238.5 -557zM1008 174q143 0 254 33l-213 229l143 127l252 -272q203 145 203 426q0 258 -172 400.5t-467 142.5t-468 -142.5 t-173 -400.5t172 -400.5t469 -142.5z" glyph-name="Q" horiz-adv-x="2015" unicode="Q"/><glyph d="M1815 0h-304l-444 520h-604v-520h-246v1434h975q258 0 419 -120t161 -337q0 -180 -114 -295t-308 -150zM461 731h715q344 0 344 244t-344 244h-715v-488z" glyph-name="R" horiz-adv-x="1900" unicode="R"/><glyph d="M934 848q180 -14 309 -40t235.5 -73t160 -125t53.5 -186q0 -209 -200 -338t-556 -129q-518 0 -856 291l153 174q281 -252 713 -252q240 0 368 60.5t128 172.5q0 104 -124 148.5t-417 69.5q-164 14 -290 38.5t-240.5 69.5t-176 123t-61.5 182q0 207 210 325t531 118 q229 0 423 -63.5t325 -174.5l-156 -168q-217 188 -587 193q-123 2 -230.5 -17.5t-187.5 -70t-80 -125.5q0 -102 134 -141t419 -62z" glyph-name="S" horiz-adv-x="1777" unicode="S"/><glyph d="M1589 1434v-215h-653v-1219h-246v1219h-649v215h1548z" glyph-name="T" horiz-adv-x="1630" unicode="T"/><glyph d="M1503 1434h246v-758q0 -326 -204 -522.5t-576 -196.5q-371 0 -575 196.5t-204 522.5v758h246v-742q0 -244 139.5 -380t393.5 -136q256 0 395 136.5t139 379.5v742z" glyph-name="U" horiz-adv-x="1937" unicode="U"/><glyph d="M18 1434h273l604 -1182l604 1182h268l-743 -1434h-262z" glyph-name="V" horiz-adv-x="1785" unicode="V"/><glyph d="M2193 1434h256l-524 -1434h-254l-422 1157l-424 -1157h-252l-526 1434h262l396 -1147l425 1147h242l424 -1147z" glyph-name="W" horiz-adv-x="2496" unicode="W"/><glyph d="M1653 1434l-660 -709l668 -725h-309l-516 557l-519 -557h-294l665 723l-659 711h309l510 -549l508 549h297z" glyph-name="X" horiz-adv-x="1681" unicode="X"/><glyph d="M23 1434h284l547 -727l543 727h282l-704 -938v-496h-246v496z" glyph-name="Y" horiz-adv-x="1701" unicode="Y"/><glyph d="M1614 1434v-172l-1149 -1051h1182v-211h-1551v172l1149 1051h-1112v211h1481z" glyph-name="Z" horiz-adv-x="1744" unicode="Z"/><glyph d="M815 1251h-397v-1314h397v-183h-598v1680h598v-183z" glyph-name="bracketleft" horiz-adv-x="899" unicode="["/><glyph d="M1133 -205l-1076 1802h267l1073 -1802h-264z" glyph-name="backslash" horiz-adv-x="1497" unicode="\"/><glyph d="M84 1251v183h598v-1680h-598v183h397v1314h-397z" glyph-name="bracketright" horiz-adv-x="899" unicode="]"/><glyph d="M197 532l460 902h195l463 -902h-219l-340 693l-342 -693h-217z" glyph-name="asciicircum" horiz-adv-x="1511" unicode="^"/><glyph d="M1315 -299h-1309v184h1309v-184z" glyph-name="underscore" horiz-adv-x="1320" unicode="_"/><glyph d="M252 1915h344l319 -318h-200z" glyph-name="grave" horiz-adv-x="1196" unicode="`"/><glyph d="M739 1163q297 0 464 -139t167 -399v-408q0 -127 51 -217h-247q-43 74 -44 158v2q-72 -88 -198.5 -144.5t-290.5 -56.5q-98 0 -191.5 20.5t-179.5 64.5t-139 124t-53 184.5t53 183t139 122.5t180.5 64.5t190.5 20.5q164 0 291 -56t198 -144v82q0 350 -436 350 q-233 0 -426 -113l-86 162q104 63 254.5 101t302.5 38zM1135 334v35q-117 203 -449 202q-88 0 -165 -15t-142.5 -67.5t-65.5 -136.5q0 -66 36 -111.5t95.5 -68t119 -32t122.5 -9.5q143 0 264.5 48.5t184.5 154.5z" glyph-name="a" horiz-adv-x="1542" unicode="a"/><glyph d="M940 1163q274 0 440 -166t166 -438t-166 -436t-440 -164q-174 0 -307 65.5t-209 174.5v-199h-240v1516h240v-594q76 111 209 176t307 65zM879 162q209 0 321.5 103.5t112.5 293.5q0 193 -113 296t-321 103q-307 0 -455 -229v-336q150 -231 455 -231z" glyph-name="b" horiz-adv-x="1652" unicode="b"/><glyph d="M1409 254q-172 -297 -610 -297q-322 0 -508.5 163t-186.5 439q0 279 185.5 442.5t509.5 163.5q428 0 604 -288l-225 -97q-102 186 -377 187q-207 0 -334 -104.5t-127 -303.5q0 -195 127 -299t334 -104q281 0 383 192z" glyph-name="c" horiz-adv-x="1474" unicode="c"/><glyph d="M713 1163q174 0 307 -65.5t209 -175.5v594h239v-1516h-239v199q-76 -109 -209 -174.5t-307 -65.5q-274 0 -440.5 164t-166.5 436t166.5 438t440.5 166zM774 162q305 0 455 231v336q-147 229 -455 229q-209 0 -321.5 -103t-112.5 -296q0 -190 112.5 -293.5t321.5 -103.5z " glyph-name="d" horiz-adv-x="1652" unicode="d"/><glyph d="M340 508q16 -180 142 -271.5t341 -91.5q152 0 258.5 39t200.5 123l139 -149q-225 -201 -610 -201q-334 0 -520.5 162t-186.5 440q0 281 183.5 443.5t507.5 162.5q307 0 486 -156.5t179 -447.5q0 -35 -6 -53h-1114zM797 977q-180 0 -297 -76t-150 -223l879 2 q-74 297 -432 297z" glyph-name="e" horiz-adv-x="1554" unicode="e"/><glyph d="M494 1214v-92h493v-188h-489v-934h-240v934h-217v188h217v62q0 184 113.5 278t292.5 94q197 0 335 -88l-71 -149q-106 70 -221 70q-213 -1 -213 -175z" glyph-name="f" horiz-adv-x="1021" unicode="f"/><glyph d="M1468 1122v-977q0 -156 -56 -273.5t-154.5 -186t-218 -102.5t-257.5 -34q-152 0 -310.5 40t-252.5 104l86 178q188 -123 453 -123q471 0 471 363v104q-78 -111 -217.5 -175.5t-300.5 -64.5q-279 0 -443 161t-164 431q0 272 164 434t443 162q170 0 304 -63.5t214 -177.5 v200h239zM774 170q301 0 455 242v313q-154 242 -455 242q-209 0 -321.5 -104.5t-112.5 -295t112.5 -294t321.5 -103.5z" glyph-name="g" horiz-adv-x="1652" unicode="g"/><glyph d="M936 1163q248 0 380 -143t132 -379v-641h-238v625q0 340 -336 340q-307 0 -450 -275v-690h-240v1122v394h240v-402v-209q74 121 208 189.5t304 68.5z" glyph-name="h" unicode="h"/><glyph d="M307.5 1276q-65.5 0 -109.5 39t-44 94q0 57 44 95t109.5 38t108.5 -38t43 -95q0 -55 -43 -94t-108.5 -39zM428 1122v-1122h-238v1122h238z" glyph-name="i" horiz-adv-x="614" unicode="i"/><glyph d="M307.5 1276q-65.5 0 -109.5 38t-44 95t43 94t110 37q66 0 109 -37t43 -94t-43 -95t-108.5 -38zM186 1122h240v-1210q0 -168 -98.5 -265.5t-261.5 -97.5q-117 0 -222 43l56 177q49 -25 114 -25q80 0 126 51t46 137v1190z" glyph-name="j" horiz-adv-x="614" unicode="j"/><glyph d="M1174 0l-449 545l-301 -246v-299h-240v1516h240v-986l696 592h295l-516 -444l549 -678h-274z" glyph-name="k" horiz-adv-x="1454" unicode="k"/><glyph d="M428 0h-238v1516h238v-1516z" glyph-name="l" horiz-adv-x="618" unicode="l"/><glyph d="M1868 1163q242 0 361.5 -143t119.5 -375v-645h-235v631q0 160 -79 247t-239 87q-281 0 -412 -277v-43v-477l2 -168h-237v631q0 160 -79 247t-239 87q-276 0 -407 -269v-696h-240v1122h240v-217q68 119 193.5 188.5t285.5 69.5q182 0 295 -83t158 -228q61 143 198.5 227 t313.5 84z" glyph-name="m" horiz-adv-x="2525" unicode="m"/><glyph d="M424 0h-240v1122h240v-217q74 121 208 189.5t304 68.5q248 0 380 -143t132 -379v-641h-238v625q0 340 -336 340q-307 0 -450 -275v-690z" glyph-name="n" unicode="n"/><glyph d="M802.5 -43q-325.5 0 -512 162t-186.5 440q0 281 186.5 443.5t512 162.5t512 -162.5t186.5 -443.5q0 -279 -186.5 -440.5t-512 -161.5zM803 158q209 0 337 103.5t128 297.5q0 197 -128 301.5t-337 104.5q-207 0 -335 -104.5t-128 -301.5q0 -195 128 -298t335 -103z" glyph-name="o" horiz-adv-x="1607" unicode="o"/><glyph d="M940 -41q-174 0 -307 65.5t-209 176.5v-611h-240v1532h240v-200q76 111 209 176t307 65q274 0 440 -164.5t166 -437t-166 -437.5t-440 -165zM879 961q-305 0 -455 -232v-336q147 -229 455 -229q209 0 321.5 102.5t112.5 295t-112.5 296t-321.5 103.5z" glyph-name="p" horiz-adv-x="1652" unicode="p"/><glyph d="M713 -41q-274 0 -441.5 165t-167.5 437.5t167 437t442 164.5q174 0 306 -65.5t210 -175.5v200h239v-1532h-239v611q-78 -111 -210 -176.5t-306 -65.5zM772 961q-207 0 -320.5 -103.5t-113.5 -296.5q0 -190 112.5 -293.5t321.5 -103.5q307 0 455 229v336 q-150 232 -455 232z" glyph-name="q" horiz-adv-x="1652" unicode="q"/><glyph d="M424 0h-240v1122h240v-256q66 133 209 206t321 73v-209q-193 0 -334 -81t-196 -234v-621z" glyph-name="r" horiz-adv-x="989" unicode="r"/><glyph d="M756 676q598 -43 598 -346q0 -164 -157 -268.5t-443 -104.5q-412 0 -676 231l129 142q217 -186 553 -187q164 0 265 42t101 124q0 80 -97 116t-312 52q-596 43 -596 334q0 164 159.5 259t442.5 95q164 0 317.5 -50t257.5 -128l-124 -156q-186 145 -463 148 q-143 0 -253 -36t-110 -118q0 -78 100.5 -107.5t307.5 -41.5z" glyph-name="s" horiz-adv-x="1433" unicode="s"/><glyph d="M934 229l63 -166q-156 -104 -346 -104q-172 0 -282.5 91t-110.5 259v623h-217v190h217v260h240v-260h489v-190h-489v-584q0 -90 60 -138t153 -48q100 -1 223 67z" glyph-name="t" horiz-adv-x="1034" unicode="t"/><glyph d="M1200 1122h240v-1122h-240v217q-74 -121 -208 -189.5t-304 -68.5q-248 0 -380 143.5t-132 378.5v641h238v-624q0 -340 336 -340q307 0 450 274v690z" glyph-name="u" unicode="u"/><glyph d="M1438 1122l-576 -1122h-254l-577 1122h262l444 -891l445 891h256z" glyph-name="v" horiz-adv-x="1470" unicode="v"/><glyph d="M1772 1122h235l-414 -1122h-237l-324 879l-327 -879h-240l-414 1122h242l307 -864l320 864h225l319 -864z" glyph-name="w" horiz-adv-x="2060" unicode="w"/><glyph d="M1337 1122l-503 -553l512 -569h-285l-375 424l-377 -424h-276l514 565l-508 557h285l368 -417l371 417h274z" glyph-name="x" horiz-adv-x="1378" unicode="x"/><glyph d="M1182 1122h252l-848 -1532h-250l280 484l-585 1048h258l450 -819z" glyph-name="y" horiz-adv-x="1466" unicode="y"/><glyph d="M1276 1122v-157l-854 -775h878v-192h-1214v160l852 774h-823v190h1161z" glyph-name="z" horiz-adv-x="1390" unicode="z"/><glyph d="M588 961q0 -168 -85 -264.5t-227 -100.5q143 -8 227.5 -104.5t84.5 -262.5q0 -137 61.5 -214.5t171.5 -77.5h62v-183h-90q-190 0 -300 106.5t-110 313.5q0 203 -96.5 279.5t-257.5 76.5v129q162 0 258 77t96 280q0 207 109.5 312.5t300.5 105.5h90v-183h-62 q-111 0 -172 -76.5t-61 -213.5z" glyph-name="braceleft" horiz-adv-x="966" unicode="{"/><glyph d="M203 -246v1680h223v-1680h-223z" glyph-name="bar" horiz-adv-x="626" unicode="|"/><glyph d="M379 961q0 137 -61.5 213.5t-172.5 76.5h-61v183h90q190 0 300 -105.5t110 -312.5q0 -203 96 -280t258 -77v-129q-162 0 -258 -76.5t-96 -279.5q0 -207 -109.5 -313.5t-300.5 -106.5h-90v183h61q111 0 172.5 77.5t61.5 214.5q0 166 84 262.5t227 104.5q-141 4 -226 100.5 t-85 264.5z" glyph-name="braceright" horiz-adv-x="966" unicode="}"/><glyph d="M1231 760l125 -135q-47 -68 -134 -116t-198 -48q-96 0 -264 57t-262 57q-139 0 -213 -104l-123 135q49 68 134 117t196 49q94 0 263 -57.5t265 -57.5q141 1 211 103z" glyph-name="asciitilde" horiz-adv-x="1511" unicode="~"/><glyph d="M324 1047q68 0 111.5 -40t43.5 -100q0 -61 -44 -102t-111.5 -41t-112.5 41t-45 102q0 59 44 99.5t114 40.5zM176 -410l45 1004h205l43 -1004h-293z" glyph-name="exclamdown" horiz-adv-x="661" unicode="¡"/><glyph d="M1380 438q-70 -121 -203 -196.5t-319 -87.5v-154h-147v154q-281 20 -438.5 167.5t-157.5 395.5q0 250 157.5 397.5t438.5 165.5v154h147v-154q184 -12 316.5 -87t203.5 -194l-182 -77q-100 160 -338 178v-766q227 18 338 182zM326 717q0 -170 101 -266.5t284 -114.5v762 q-182 -18 -283.5 -114.5t-101.5 -266.5z" glyph-name="cent" horiz-adv-x="1478" unicode="¢"/><glyph d="M594 186h819v-186h-1059h-248v186h248v451h-248v172h248v113q0 147 60.5 271t192.5 205t317 81q147 0 273 -55.5t202 -143.5l-115 -145q-141 145 -334 145q-178 0 -267 -102.5t-89 -278.5v-90h700v-172h-700v-451z" glyph-name="sterling" horiz-adv-x="1531" unicode="£"/><glyph d="M1442 729q0 -229 -139 -379l198 -198l-119 -111l-213 207q-145 -78 -346 -78q-203 0 -348 78l-213 -207l-119 111l199 198q-139 145 -139 379q0 211 116 352l-176 176l119 111l182 -176q152 96 379 96q225 0 377 -96l182 176l119 -111l-176 -176q117 -141 117 -352z M395 729q0 -186 116 -284.5t312.5 -98.5t311 98.5t114.5 284.5t-114.5 284.5t-311 98.5t-312.5 -98.5t-116 -284.5z" glyph-name="currency" horiz-adv-x="1644" unicode="¤"/><glyph d="M1686 1434l-576 -750h358v-121h-450l-17 -22v-129h467v-119h-467v-293h-245v293h-469v119h469v129l-19 22h-450v121h358l-575 750h282l529 -709l524 709h281z" glyph-name="yen" horiz-adv-x="1751" unicode="¥"/><glyph d="M203 762v672h223v-672h-223zM426 436v-682h-223v682h223z" glyph-name="brokenbar" horiz-adv-x="626" unicode="¦"/><glyph d="M1182 338q188 -86 188 -252q0 -164 -158.5 -270.5t-447.5 -106.5q-387 0 -664 230l129 135q227 -186 541 -187q166 0 270.5 45t104.5 129t-97.5 121t-312.5 54q-125 10 -221 29.5t-185 56t-136.5 100t-47.5 149.5q0 199 217 301q-207 82 -206 256q0 166 165.5 258.5 t430.5 92.5q164 0 315.5 -51.5t257.5 -131.5l-121 -141q-188 143 -452 145q-98 2 -177 -11t-136.5 -51t-57.5 -97q0 -43 28.5 -73t91 -46t123 -23.5t162.5 -15.5q281 -23 437.5 -100.5t156.5 -237.5q1 -203 -198 -307zM371 598q0 -59 57 -97t139 -55.5t207 -25.5 q96 -8 148 -14q106 25 169.5 80t63.5 122q0 88 -99.5 130t-303.5 61l-74 6q-131 -12 -219 -67.5t-88 -139.5z" glyph-name="section" horiz-adv-x="1492" unicode="§"/><glyph d="M324 1616q-59 0 -97.5 33.5t-38.5 83.5q0 51 38 84.5t98 33.5q57 0 94 -33.5t37 -84.5q0 -49 -38 -83t-93 -34zM868 1616q-57 0 -96 33.5t-39 83.5q0 51 39 84.5t96.5 33.5t94 -33.5t36.5 -84.5q0 -49 -38 -83t-93 -34z" glyph-name="dieresis" horiz-adv-x="1189" unicode="¨"/><glyph d="M1003.5 -43q-409.5 0 -648 207t-238.5 553t238.5 553t648 207t648 -207t238.5 -553t-238.5 -553t-648 -207zM1003.5 33q366.5 0 584.5 181t218 502.5t-218 503t-584.5 181.5t-585.5 -181.5t-219 -503t219 -502.5t585.5 -181zM1552 459q-80 -121 -221 -193.5t-332 -72.5 q-270 0 -434 141t-164 385t164 385t434 141q190 0 328.5 -71.5t214.5 -190.5l-164 -78q-121 178 -364 178q-193 0 -305.5 -94t-112.5 -270t112.5 -270.5t305.5 -94.5q248 0 370 185z" glyph-name="copyright" horiz-adv-x="2007" unicode="©"/><glyph d="M561 1475q205 0 319.5 -95.5t114.5 -277.5v-285q0 -84 43 -147h-178q-35 41 -35 108v4q-82 -141 -331 -141q-152 0 -270 65.5t-118 200.5q0 94 63.5 157.5t146.5 87.5t178 24q115 0 203.5 -38t127.5 -106v72q0 240 -290 239q-164 0 -299 -79l-56 118q160 93 381 93z M825 893v31q-68 139 -297 139q-57 0 -108 -10.5t-97.5 -47t-46.5 -98.5q0 -86 78 -119.5t174 -33.5q229 0 297 139z" glyph-name="ordfeminine" horiz-adv-x="1169" unicode="ª"/><glyph d="M514 1059h246l-434 -445l434 -442h-246l-432 442zM1010 1059h245l-434 -445l434 -442h-245l-432 442z" glyph-name="guillemotleft" horiz-adv-x="1366" unicode="«"/><glyph d="M152 698h1200v-577h-209v389h-991v188z" glyph-name="logicalnot" horiz-adv-x="1511" unicode="¬"/><glyph d="M588 1454q205 0 340 -117.5t135 -310t-135 -309.5t-340 -117t-339 117t-134 309.5t134 310t339 117.5zM590 651q182 0 298 101.5t116 273.5q0 174 -116 274.5t-298 100.5q-184 0 -300 -100.5t-116 -274.5q0 -172 116 -273.5t300 -101.5zM844 1112q0 -115 -129 -139 l139 -160h-113l-133 154h-147v-154h-96v442h294q84 0 134.5 -37.5t50.5 -105.5zM459 1036h178q106 0 106 72q0 74 -106 74h-178v-146z" glyph-name="registered" horiz-adv-x="1177" unicode="®"/><glyph d="M170 1823h840v-181h-840v181z" glyph-name="macron" horiz-adv-x="1181" unicode="¯"/><glyph d="M438.5 881q-145.5 0 -237.5 80.5t-92 209.5q0 127 92 208t237.5 81t237.5 -81t92 -208q0 -129 -92 -209.5t-237.5 -80.5zM438 1008q88 0 137.5 44t49.5 119.5t-49.5 119.5t-137.5 44t-137 -44t-49 -119.5t49 -119.5t137 -44z" glyph-name="degree" horiz-adv-x="876" unicode="°"/><glyph d="M852 901h494v-176h-494v-416h-193v416h-493v176h493v412h193v-412zM166 37v176h1180v-176h-1180z" glyph-name="plusminus" horiz-adv-x="1511" unicode="±"/><glyph d="M82 1624q152 197 416 197q152 0 265.5 -67.5t113.5 -184.5q0 -100 -80 -167t-232 -124q-145 -55 -220 -97t-93 -96h643v-133h-832v84q37 221 406 355q14 6 41 16t39 15t34.5 14.5t33 14.5t28 14.5t25.5 17.5t19 17t15.5 19.5t8.5 22.5t4 25q0 59 -66.5 92t-161.5 33 q-184 0 -303 -148z" glyph-name="uni00B2" horiz-adv-x="968" unicode="²"/><glyph d="M176 1200q102 -143 311 -143q109 0 185 38t76 109q0 131 -271 131h-115v119h115q242 0 242 117q0 61 -69.5 91t-170.5 30q-184 0 -284 -129l-111 73q51 84 162.5 134.5t247.5 50.5q160 0 274.5 -60.5t114.5 -169.5q0 -78 -59.5 -132t-145.5 -60q98 -14 167.5 -66.5 t69.5 -144.5q0 -121 -118.5 -190.5t-302.5 -69.5q-143 0 -259 56t-178 151z" glyph-name="uni00B3" horiz-adv-x="993" unicode="³"/><glyph d="M944 1915l-463 -318h-200l319 318h344z" glyph-name="acute" horiz-adv-x="1196" unicode="´"/><glyph d="M649 1434h1026v-1434h-205v1247h-282v-1247h-203v508h-336q-262 0 -417.5 120t-155.5 343q0 219 155.5 341t417.5 122zM985 692v555h-338q-172 0 -268 -70.5t-96 -209.5q0 -137 95 -206t269 -69h338z" glyph-name="paragraph" horiz-adv-x="1890" unicode="¶"/><glyph d="M281 444q-68 0 -112 40t-44 100q0 61 44 102t112 41q70 0 113.5 -41t43.5 -102q0 -59 -43.5 -99.5t-113.5 -40.5z" glyph-name="periodcentered" horiz-adv-x="563" unicode="·"/><glyph d="M694 -111l-262 -327l-174 47l209 317z" glyph-name="cedilla" horiz-adv-x="1193" unicode="¸"/><glyph d="M291 950v658q-88 -72 -244 -97v136q156 23 283 145h121v-842h-160z" glyph-name="uni00B9" horiz-adv-x="585" unicode="¹"/><glyph d="M592 639q-223 0 -353 112.5t-130 305.5q0 195 130 306.5t353 111.5t352 -112t129 -306q0 -193 -129 -305.5t-352 -112.5zM591.5 782q147.5 0 230.5 71t83 204t-83 203.5t-230.5 70.5t-231.5 -70.5t-84 -203.5t84 -204t231.5 -71z" glyph-name="ordmasculine" horiz-adv-x="1181" unicode="º"/><glyph d="M356 1059l432 -445l-432 -442h-245l434 442l-434 445h245zM852 1059l432 -445l-432 -442h-246l432 442l-432 445h246z" glyph-name="guillemotright" horiz-adv-x="1366" unicode="»"/><glyph d="M291 592v657q-84 -70 -244 -94v135q154 20 283 144h121v-842h-160zM518 0h-176l905 1434h178zM1974 322v-127h-164v-195h-153v195h-621v94l633 553h141v-520h164zM1245 322h410v346z" glyph-name="onequarter" horiz-adv-x="2025" unicode="¼"/><glyph d="M291 592v657q-84 -70 -244 -94v135q154 20 283 144h121v-842h-160zM504 0h-178l907 1434h178zM1186 672q68 90 175 143t241 53q152 0 265 -67.5t113 -184.5q0 -100 -79.5 -166.5t-231.5 -123.5q-145 -55 -220 -97.5t-93 -95.5h641v-133h-830v84q37 221 406 354 q14 6 44 17.5t43 17.5t37.5 16.5t36 16.5t29 16t25.5 19.5t17.5 20.5t12.5 24.5t3 27.5q0 59 -66.5 92t-161.5 33q-184 0 -303 -147z" glyph-name="onehalf" horiz-adv-x="2072" unicode="½"/><glyph d="M176 840q102 -143 311 -144q109 0 185 38t76 110q0 131 -271 131h-115v119h115q242 0 242 116q0 63 -69.5 92t-170.5 29q-184 0 -284 -127l-111 72q51 84 162.5 134t247.5 50q160 0 274.5 -59.5t114.5 -167.5q0 -80 -59.5 -133t-145.5 -62q98 -14 167.5 -66t69.5 -145 q0 -121 -118.5 -190.5t-302.5 -69.5q-143 0 -259 56.5t-178 150.5zM883 0h-178l907 1434h178zM2339 322v-127h-166v-195h-154v195h-618v94l631 553h141v-520h166zM1608 322h411v346z" glyph-name="threequarters" horiz-adv-x="2390" unicode="¾"/><glyph d="M774 1145q70 0 114 -40t44 -99q0 -61 -45 -102.5t-112.5 -41.5t-112 41t-44.5 103q0 59 44 99t112 40zM877 688v-375q-262 -20 -397.5 -74.5t-135.5 -170.5q0 -113 117 -166.5t287 -53.5q358 0 552 258l158 -133q-119 -152 -301 -239.5t-416 -87.5q-262 0 -454.5 110.5 t-192.5 309.5q0 176 159 277t421 120v225h203z" glyph-name="questiondown" horiz-adv-x="1525" unicode="¿"/><glyph d="M1126 1597h-200l-463 318h344zM1571 0l-185 346h-919l-182 -346h-267l777 1434h270l774 -1434h-268zM578 555h700l-350 664z" glyph-name="Agrave" horiz-adv-x="1857" unicode="À"/><glyph d="M1397 1915l-463 -318h-201l320 318h344zM1571 0l-185 346h-919l-182 -346h-267l777 1434h270l774 -1434h-268zM578 555h700l-350 664z" glyph-name="Aacute" horiz-adv-x="1857" unicode="Á"/><glyph d="M926 1800l-201 -203h-242l318 318h256l315 -318h-242zM1571 0l-185 346h-919l-182 -346h-267l777 1434h270l774 -1434h-268zM578 555h700l-350 664z" glyph-name="Acircumflex" horiz-adv-x="1857" unicode="Â"/><glyph d="M717 1735q-72 0 -116 -26t-83 -75l-123 121q45 68 127 118t191 50q90 0 221 -57.5t211 -57.5q117 0 194 101l125 -123q-45 -68 -127 -117t-190 -49q-92 0 -223 57.5t-207 57.5zM1571 0l-185 346h-919l-182 -346h-267l777 1434h270l774 -1434h-268zM578 555h700l-350 664z " glyph-name="Atilde" horiz-adv-x="1857" unicode="Ã"/><glyph d="M657 1616q-59 0 -97 33.5t-38 83.5q0 51 38 84.5t97 33.5q57 0 94 -33.5t37 -84.5q0 -49 -38 -83t-93 -34zM1202 1616q-57 0 -96 33.5t-39 83.5q0 51 39 84.5t96.5 33.5t94 -33.5t36.5 -84.5q0 -49 -38 -83t-93 -34zM1571 0l-185 346h-919l-182 -346h-267l777 1434h270 l774 -1434h-268zM578 555h700l-350 664z" glyph-name="Adieresis" horiz-adv-x="1857" unicode="Ä"/><glyph d="M928 1581q-125 0 -205 59.5t-80 168t80 169t205 60.5t205.5 -60.5t80.5 -169t-80.5 -168t-205.5 -59.5zM929.5 1927q-61.5 0 -97 -31.5t-35.5 -87.5q0 -57 35.5 -87.5t97 -30.5t98.5 30.5t37 87.5q0 55 -37 87t-98.5 32zM1571 0l-185 346h-919l-182 -346h-267l777 1434 h270l774 -1434h-268zM578 555h700l-350 664z" glyph-name="Aring" horiz-adv-x="1857" unicode="Å"/><glyph d="M1585 215h1184v-215h-1430v340h-774l-293 -340h-292l1251 1434h141h1376v-215h-1163v-383h979v-215h-979v-406zM737 539h602v698z" glyph-name="AE" horiz-adv-x="2873" unicode="Æ"/><glyph d="M997 174q371 0 527 254l227 -113q-106 -164 -302 -261t-458 -97q-403 0 -638.5 204t-235.5 556t237.5 556t646.5 204q254 0 449 -97.5t299 -259.5l-229 -114q-154 254 -523 254q-291 0 -460.5 -140.5t-169.5 -402.5t169.5 -402.5t460.5 -140.5zM1085 -111l-262 -327 l-174 47l209 317z" glyph-name="Ccedilla" horiz-adv-x="1822" unicode="Ç"/><glyph d="M444 1915h344l320 -318h-201zM461 215h1184v-215h-1428v1434h1407v-215h-1163v-383h979v-215h-979v-406z" glyph-name="Egrave" horiz-adv-x="1748" unicode="È"/><glyph d="M1378 1915l-463 -318h-200l319 318h344zM461 215h1184v-215h-1428v1434h1407v-215h-1163v-383h979v-215h-979v-406z" glyph-name="Eacute" horiz-adv-x="1748" unicode="É"/><glyph d="M467 1597l317 318h256l316 -318h-242l-205 203l-200 -203h-242zM461 215h1184v-215h-1428v1434h1407v-215h-1163v-383h979v-215h-979v-406z" glyph-name="Ecircumflex" horiz-adv-x="1748" unicode="Ê"/><glyph d="M641 1616q-59 0 -97 33.5t-38 83.5q0 51 38 84.5t97 33.5q57 0 94 -33.5t37 -84.5q0 -49 -38 -83t-93 -34zM1186 1616q-57 0 -96 33.5t-39 83.5q0 51 38.5 84.5t96 33.5t94.5 -33.5t37 -84.5q0 -49 -38 -83t-93 -34zM461 215h1184v-215h-1428v1434h1407v-215h-1163v-383 h979v-215h-979v-406z" glyph-name="Edieresis" horiz-adv-x="1748" unicode="Ë"/><glyph d="M-127 1915h344l320 -318h-201zM463 0h-246v1434h246v-1434z" glyph-name="Igrave" horiz-adv-x="677" unicode="Ì"/><glyph d="M807 1915l-463 -318h-201l320 318h344zM463 0h-246v1434h246v-1434z" glyph-name="Iacute" horiz-adv-x="677" unicode="Í"/><glyph d="M-106 1597l317 318h256l315 -318h-241l-205 203l-201 -203h-241zM463 0h-246v1434h246v-1434z" glyph-name="Icircumflex" horiz-adv-x="677" unicode="Î"/><glyph d="M68 1616q-59 0 -97.5 33.5t-38.5 83.5q0 51 38 84.5t98 33.5q57 0 94 -33.5t37 -84.5q0 -49 -38 -83t-93 -34zM612 1616q-57 0 -96 33.5t-39 83.5q0 51 39 84.5t96.5 33.5t94 -33.5t36.5 -84.5q0 -49 -38 -83t-93 -34zM463 0h-246v1434h246v-1434z" glyph-name="Idieresis" horiz-adv-x="677" unicode="Ï"/><glyph d="M981 1434q401 0 635.5 -192.5t234.5 -524.5t-234.5 -524.5t-635.5 -192.5h-731v643h-209v176h209v615h731zM961 215q293 0 465.5 128t172.5 374t-173 374t-465 128h-465v-400h440v-176h-440v-428h465z" glyph-name="Eth" horiz-adv-x="1968" unicode="Ð"/><glyph d="M1415 1909l125 -123q-45 -68 -127 -117t-190 -49q-92 0 -223.5 57.5t-206.5 57.5q-72 0 -116 -26t-83 -75l-123 121q45 68 127 118t190 50q92 0 223.5 -57.5t209.5 -57.5q116 1 194 101zM1552 1434h240v-1434h-217l-1120 1130v-1130h-238v1434h262l1073 -1088v1088z" glyph-name="Ntilde" horiz-adv-x="2007" unicode="Ñ"/><glyph d="M543 1915h344l319 -318h-200zM1007.5 -43q-413.5 0 -652 202.5t-238.5 557t238.5 557.5t652 203t652 -203t238.5 -557.5t-238.5 -557t-652 -202.5zM1008 174q295 0 467 142.5t172 400.5t-172 400.5t-467 142.5t-468 -142.5t-173 -400.5t172 -400.5t469 -142.5z" glyph-name="Ograve" horiz-adv-x="2015" unicode="Ò"/><glyph d="M1477 1915l-463 -318h-201l320 318h344zM1007.5 -43q-413.5 0 -652 202.5t-238.5 557t238.5 557.5t652 203t652 -203t238.5 -557.5t-238.5 -557t-652 -202.5zM1008 174q295 0 467 142.5t172 400.5t-172 400.5t-467 142.5t-468 -142.5t-173 -400.5t172 -400.5t469 -142.5z " glyph-name="Oacute" horiz-adv-x="2015" unicode="Ó"/><glyph d="M563 1597l318 318h256l315 -318h-242l-204 203l-201 -203h-242zM1007.5 -43q-413.5 0 -652 202.5t-238.5 557t238.5 557.5t652 203t652 -203t238.5 -557.5t-238.5 -557t-652 -202.5zM1008 174q295 0 467 142.5t172 400.5t-172 400.5t-467 142.5t-468 -142.5t-173 -400.5 t172 -400.5t469 -142.5z" glyph-name="Ocircumflex" horiz-adv-x="2015" unicode="Ô"/><glyph d="M1417 1909l125 -123q-45 -68 -127 -117t-190 -49q-92 0 -223.5 57.5t-206.5 57.5q-72 0 -116 -26t-83 -75l-123 121q45 68 127 118t191 50q90 0 221 -57.5t211 -57.5q116 1 194 101zM1007.5 -43q-413.5 0 -652 202.5t-238.5 557t238.5 557.5t652 203t652 -203 t238.5 -557.5t-238.5 -557t-652 -202.5zM1008 174q295 0 467 142.5t172 400.5t-172 400.5t-467 142.5t-468 -142.5t-173 -400.5t172 -400.5t469 -142.5z" glyph-name="Otilde" horiz-adv-x="2015" unicode="Õ"/><glyph d="M737 1616q-59 0 -97 33.5t-38 83.5q0 51 38 84.5t97 33.5q57 0 94 -33.5t37 -84.5q0 -49 -38 -83t-93 -34zM1282 1616q-57 0 -96 33.5t-39 83.5q0 51 39 84.5t96 33.5t94 -33.5t37 -84.5q0 -49 -38 -83t-93 -34zM1007.5 -43q-413.5 0 -652 202.5t-238.5 557t238.5 557.5 t652 203t652 -203t238.5 -557.5t-238.5 -557t-652 -202.5zM1008 174q295 0 467 142.5t172 400.5t-172 400.5t-467 142.5t-468 -142.5t-173 -400.5t172 -400.5t469 -142.5z" glyph-name="Odieresis" horiz-adv-x="2015" unicode="Ö"/><glyph d="M1272 993l-375 -375l375 -372l-139 -144l-375 377l-375 -375l-137 142l372 372l-372 375l139 137l373 -372l375 372z" glyph-name="multiply" horiz-adv-x="1515" unicode="×"/><glyph d="M1581 1333q317 -205 317 -616q0 -354 -238.5 -557t-651.5 -203q-233 0 -414 66l-162 -213h-219l221 292q-317 201 -317 615q0 354 238.5 557t652.5 203q233 0 413 -66l160 213h221zM367 717q0 -283 208 -428l703 934q-119 37 -270 37q-295 0 -468 -142.5t-173 -400.5z M1008 174q295 0 467 142.5t172 400.5q0 285 -207 428l-705 -934q121 -37 273 -37z" glyph-name="Oslash" horiz-adv-x="2015" unicode="Ø"/><glyph d="M504 1915h344l319 -318h-200zM1503 1434h246v-758q0 -326 -204 -522.5t-576 -196.5q-371 0 -575 196.5t-204 522.5v758h246v-742q0 -244 139.5 -380t393.5 -136q256 0 395 136.5t139 379.5v742z" glyph-name="Ugrave" horiz-adv-x="1937" unicode="Ù"/><glyph d="M1438 1915l-463 -318h-201l320 318h344zM1503 1434h246v-758q0 -326 -204 -522.5t-576 -196.5q-371 0 -575 196.5t-204 522.5v758h246v-742q0 -244 139.5 -380t393.5 -136q256 0 395 136.5t139 379.5v742z" glyph-name="Uacute" horiz-adv-x="1937" unicode="Ú"/><glyph d="M524 1597l318 318h256l315 -318h-242l-204 203l-201 -203h-242zM1503 1434h246v-758q0 -326 -204 -522.5t-576 -196.5q-371 0 -575 196.5t-204 522.5v758h246v-742q0 -244 139.5 -380t393.5 -136q256 0 395 136.5t139 379.5v742z" glyph-name="Ucircumflex" horiz-adv-x="1937" unicode="Û"/><glyph d="M698 1616q-59 0 -97 33.5t-38 83.5q0 51 38 84.5t97 33.5q57 0 94 -33.5t37 -84.5q0 -49 -38 -83t-93 -34zM1243 1616q-57 0 -96 33.5t-39 83.5q0 51 39 84.5t96 33.5t94 -33.5t37 -84.5q0 -49 -38 -83t-93 -34zM1503 1434h246v-758q0 -326 -204 -522.5t-576 -196.5 q-371 0 -575 196.5t-204 522.5v758h246v-742q0 -244 139.5 -380t393.5 -136q256 0 395 136.5t139 379.5v742z" glyph-name="Udieresis" horiz-adv-x="1937" unicode="Ü"/><glyph d="M1321 1915l-463 -318h-201l320 318h344zM23 1434h284l547 -727l543 727h282l-704 -938v-496h-246v496z" glyph-name="Yacute" horiz-adv-x="1701" unicode="Ý"/><glyph d="M1190 1198q260 0 417.5 -124t157.5 -343q0 -223 -157.5 -346t-417.5 -123h-727v-262h-246v1434h246v-236h727zM1171 471q342 0 342 260q0 258 -342 258h-708v-518h708z" glyph-name="Thorn" horiz-adv-x="1841" unicode="Þ"/><glyph d="M666 203q111 -37 239 -37q178 0 273.5 68.5t95.5 201.5q0 272 -375 273h-143v174h80q174 0 268 62.5t94 180.5q0 125 -98.5 183.5t-259.5 58.5q-201 0 -308.5 -101.5t-107.5 -285.5v-981h-240v948q0 270 170 439t486 169q260 0 428 -112.5t168 -294.5 q0 -131 -92.5 -226.5t-249.5 -115.5q182 -14 303 -118.5t121 -278.5q0 -190 -149.5 -310t-401.5 -120q-184 0 -351 55z" glyph-name="germandbls" horiz-adv-x="1619" unicode="ß"/><glyph d="M301 1604h344l320 -318h-201zM739 1163q297 0 464 -139t167 -399v-408q0 -127 51 -217h-247q-43 74 -44 158v2q-72 -88 -198.5 -144.5t-290.5 -56.5q-98 0 -191.5 20.5t-179.5 64.5t-139 124t-53 184.5t53 183t139 122.5t180.5 64.5t190.5 20.5q164 0 291 -56t198 -144 v82q0 350 -436 350q-233 0 -426 -113l-86 162q104 63 254.5 101t302.5 38zM1135 334v35q-117 203 -449 202q-88 0 -165 -15t-142.5 -67.5t-65.5 -136.5q0 -66 36 -111.5t95.5 -68t119 -32t122.5 -9.5q143 0 264.5 48.5t184.5 154.5z" glyph-name="agrave" horiz-adv-x="1542" unicode="à"/><glyph d="M1237 1604l-463 -318h-201l320 318h344zM739 1163q297 0 464 -139t167 -399v-408q0 -127 51 -217h-247q-43 74 -44 158v2q-72 -88 -198.5 -144.5t-290.5 -56.5q-98 0 -191.5 20.5t-179.5 64.5t-139 124t-53 184.5t53 183t139 122.5t180.5 64.5t190.5 20.5q164 0 291 -56 t198 -144v82q0 350 -436 350q-233 0 -426 -113l-86 162q104 63 254.5 101t302.5 38zM1135 334v35q-117 203 -449 202q-88 0 -165 -15t-142.5 -67.5t-65.5 -136.5q0 -66 36 -111.5t95.5 -68t119 -32t122.5 -9.5q143 0 264.5 48.5t184.5 154.5z" glyph-name="aacute" horiz-adv-x="1542" unicode="á"/><glyph d="M324 1286l317 318h256l315 -318h-241l-205 203l-201 -203h-241zM739 1163q297 0 464 -139t167 -399v-408q0 -127 51 -217h-247q-43 74 -44 158v2q-72 -88 -198.5 -144.5t-290.5 -56.5q-98 0 -191.5 20.5t-179.5 64.5t-139 124t-53 184.5t53 183t139 122.5t180.5 64.5 t190.5 20.5q164 0 291 -56t198 -144v82q0 350 -436 350q-233 0 -426 -113l-86 162q104 63 254.5 101t302.5 38zM1135 334v35q-117 203 -449 202q-88 0 -165 -15t-142.5 -67.5t-65.5 -136.5q0 -66 36 -111.5t95.5 -68t119 -32t122.5 -9.5q143 0 264.5 48.5t184.5 154.5z" glyph-name="acircumflex" horiz-adv-x="1542" unicode="â"/><glyph d="M1178 1597l125 -122q-45 -68 -127 -117t-191 -49q-92 0 -223 57t-207 57q-72 0 -116 -25.5t-83 -74.5l-123 121q45 68 127 118t191 50q92 0 223 -57.5t209 -57.5q117 0 195 100zM739 1163q297 0 464 -139t167 -399v-408q0 -127 51 -217h-247q-43 74 -44 158v2 q-72 -88 -198.5 -144.5t-290.5 -56.5q-98 0 -191.5 20.5t-179.5 64.5t-139 124t-53 184.5t53 183t139 122.5t180.5 64.5t190.5 20.5q164 0 291 -56t198 -144v82q0 350 -436 350q-233 0 -426 -113l-86 162q104 63 254.5 101t302.5 38zM1135 334v35q-117 203 -449 202 q-88 0 -165 -15t-142.5 -67.5t-65.5 -136.5q0 -66 36 -111.5t95.5 -68t119 -32t122.5 -9.5q143 0 264.5 48.5t184.5 154.5z" glyph-name="atilde" horiz-adv-x="1542" unicode="ã"/><glyph d="M498 1305q-59 0 -97.5 33.5t-38.5 82.5q0 51 38 85t98 34q57 0 94 -33.5t37 -85.5q0 -49 -38 -82.5t-93 -33.5zM1042 1305q-57 0 -96 33.5t-39 82.5q0 51 39 85t96.5 34t94.5 -33.5t37 -85.5q0 -49 -38.5 -82.5t-93.5 -33.5zM739 1163q297 0 464 -139t167 -399v-408 q0 -127 51 -217h-247q-43 74 -44 158v2q-72 -88 -198.5 -144.5t-290.5 -56.5q-98 0 -191.5 20.5t-179.5 64.5t-139 124t-53 184.5t53 183t139 122.5t180.5 64.5t190.5 20.5q164 0 291 -56t198 -144v82q0 350 -436 350q-233 0 -426 -113l-86 162q104 63 254.5 101t302.5 38z M1135 334v35q-117 203 -449 202q-88 0 -165 -15t-142.5 -67.5t-65.5 -136.5q0 -66 36 -111.5t95.5 -68t119 -32t122.5 -9.5q143 0 264.5 48.5t184.5 154.5z" glyph-name="adieresis" horiz-adv-x="1542" unicode="ä"/><glyph d="M768 1270q-125 0 -205 59.5t-80 168t80 168.5t205 60t206 -60t81 -168.5t-81 -168t-206 -59.5zM637 1497q0 -57 36 -88t97 -31t98 31t37 88q0 55 -37 87t-98 32t-97 -32t-36 -87zM739 1163q297 0 464 -139t167 -399v-408q0 -127 51 -217h-247q-43 74 -44 158v2 q-72 -88 -198.5 -144.5t-290.5 -56.5q-98 0 -191.5 20.5t-179.5 64.5t-139 124t-53 184.5t53 183t139 122.5t180.5 64.5t190.5 20.5q164 0 291 -56t198 -144v82q0 350 -436 350q-233 0 -426 -113l-86 162q104 63 254.5 101t302.5 38zM1135 334v35q-117 203 -449 202 q-88 0 -165 -15t-142.5 -67.5t-65.5 -136.5q0 -66 36 -111.5t95.5 -68t119 -32t122.5 -9.5q143 0 264.5 48.5t184.5 154.5z" glyph-name="aring" horiz-adv-x="1542" unicode="å"/><glyph d="M1362 510v-72q63 -289 475 -288q156 0 260.5 34.5t200.5 118.5l137 -145q-227 -201 -610 -201q-426 0 -604 258q-78 -123 -240 -189.5t-338 -66.5q-98 0 -192.5 20.5t-180.5 64.5t-139 124t-53 184.5t53 183t139 122.5t180.5 64.5t190.5 20.5q166 0 293 -59t196 -156v97 q0 352 -436 352q-244 0 -436 -117l-72 170q231 133 553 133q365 0 523 -205q178 207 546 207q305 0 485.5 -157.5t180.5 -444.5q0 -29 -4 -53h-1108zM1810 975q-387 0 -448 -293h881q-64 293 -433 293zM1135 334v35q-119 205 -449 204q-63 0 -122.5 -10t-119 -32.5 t-95.5 -68.5t-36 -110q0 -66 36 -111.5t95.5 -68t119 -33t122.5 -10.5q141 0 263.5 49.5t185.5 155.5z" glyph-name="ae" horiz-adv-x="2568" unicode="æ"/><glyph d="M1409 254q-172 -297 -610 -297q-322 0 -508.5 163t-186.5 439q0 279 185.5 442.5t509.5 163.5q428 0 604 -288l-225 -97q-102 186 -377 187q-207 0 -334 -104.5t-127 -303.5q0 -195 127 -299t334 -104q281 0 383 192zM891 -111l-262 -327l-174 47l209 317z" glyph-name="ccedilla" horiz-adv-x="1474" unicode="ç"/><glyph d="M991 1286h-200l-463 318h344zM340 508q16 -180 142 -271.5t341 -91.5q152 0 258.5 39t200.5 123l139 -149q-225 -201 -610 -201q-334 0 -520.5 162t-186.5 440q0 281 183.5 443.5t507.5 162.5q307 0 486 -156.5t179 -447.5q0 -35 -6 -53h-1114zM797 977q-180 0 -297 -76 t-150 -223l879 2q-74 297 -432 297z" glyph-name="egrave" horiz-adv-x="1554" unicode="è"/><glyph d="M1262 1604l-463 -318h-201l320 318h344zM340 508q16 -180 142 -271.5t341 -91.5q152 0 258.5 39t200.5 123l139 -149q-225 -201 -610 -201q-334 0 -520.5 162t-186.5 440q0 281 183.5 443.5t507.5 162.5q307 0 486 -156.5t179 -447.5q0 -35 -6 -53h-1114zM797 977 q-180 0 -297 -76t-150 -223l879 2q-74 297 -432 297z" glyph-name="eacute" horiz-adv-x="1554" unicode="é"/><glyph d="M793 1489l-201 -203h-242l318 318h256l315 -318h-242zM340 508q16 -180 142 -271.5t341 -91.5q152 0 258.5 39t200.5 123l139 -149q-225 -201 -610 -201q-334 0 -520.5 162t-186.5 440q0 281 183.5 443.5t507.5 162.5q307 0 486 -156.5t179 -447.5q0 -35 -6 -53h-1114z M797 977q-180 0 -297 -76t-150 -223l879 2q-74 297 -432 297z" glyph-name="ecircumflex" horiz-adv-x="1554" unicode="ê"/><glyph d="M522 1305q-59 0 -97 33.5t-38 82.5q0 51 38 85t97 34q57 0 94 -33.5t37 -85.5q0 -49 -38 -82.5t-93 -33.5zM1067 1305q-57 0 -96 33.5t-39 82.5q0 51 39 85t96 34t94 -33.5t37 -85.5q0 -49 -38 -82.5t-93 -33.5zM340 508q16 -180 142 -271.5t341 -91.5q152 0 258.5 39 t200.5 123l139 -149q-225 -201 -610 -201q-334 0 -520.5 162t-186.5 440q0 281 183.5 443.5t507.5 162.5q307 0 486 -156.5t179 -447.5q0 -35 -6 -53h-1114zM797 977q-180 0 -297 -76t-150 -223l879 2q-74 297 -432 297z" glyph-name="edieresis" horiz-adv-x="1554" unicode="ë"/><glyph d="M-158 1604h344l320 -318h-201zM428 1122v-1122h-238v1122h238z" glyph-name="igrave" horiz-adv-x="618" unicode="ì"/><glyph d="M778 1604l-463 -318h-200l319 318h344zM428 1122v-1122h-238v1122h238z" glyph-name="iacute" horiz-adv-x="618" unicode="í"/><glyph d="M-135 1286l317 318h256l316 -318h-242l-205 203l-201 -203h-241zM428 1122v-1122h-238v1122h238z" glyph-name="icircumflex" horiz-adv-x="618" unicode="î"/><glyph d="M39 1305q-59 0 -97 33.5t-38 82.5q0 51 38 85t97 34q57 0 94 -33.5t37 -85.5q0 -49 -38 -82.5t-93 -33.5zM584 1305q-57 0 -96 33.5t-39 82.5q0 51 38.5 85t96 34t94.5 -33.5t37 -85.5q0 -49 -38 -82.5t-93 -33.5zM428 1122v-1122h-238v1122h238z" glyph-name="idieresis" horiz-adv-x="618" unicode="ï"/><glyph d="M1094 1339q410 -250 409 -714q0 -670 -698 -670q-324 0 -512.5 154.5t-188.5 427.5q0 262 178.5 413.5t434.5 151.5q430 0 553 -271q-78 264 -424 408l-334 -133l-55 121l194 78q-96 25 -235 45l35 194q274 -35 485 -125l299 121l55 -121zM803 150q209 0 339 98t130 289 q0 188 -130 286.5t-339 98.5t-338 -98.5t-129 -286.5q0 -190 129 -288.5t338 -98.5z" glyph-name="eth" horiz-adv-x="1609" unicode="ð"/><glyph d="M1225 1597l125 -122q-45 -68 -127 -117t-191 -49q-92 0 -223 57t-207 57q-72 0 -116 -25.5t-83 -74.5l-122 121q45 68 126.5 118t190.5 50q90 0 221 -57.5t211 -57.5q117 0 195 100zM424 0h-240v1122h240v-217q74 121 208 189.5t304 68.5q248 0 380 -143t132 -379v-641 h-238v625q0 340 -336 340q-307 0 -450 -275v-690z" glyph-name="ntilde" unicode="ñ"/><glyph d="M336 1604h344l319 -318h-200zM802.5 -43q-325.5 0 -512 162t-186.5 440q0 281 186.5 443.5t512 162.5t512 -162.5t186.5 -443.5q0 -279 -186.5 -440.5t-512 -161.5zM803 158q209 0 337 103.5t128 297.5q0 197 -128 301.5t-337 104.5q-207 0 -335 -104.5t-128 -301.5 q0 -195 128 -298t335 -103z" glyph-name="ograve" horiz-adv-x="1607" unicode="ò"/><glyph d="M1272 1604l-463 -318h-201l320 318h344zM802.5 -43q-325.5 0 -512 162t-186.5 440q0 281 186.5 443.5t512 162.5t512 -162.5t186.5 -443.5q0 -279 -186.5 -440.5t-512 -161.5zM803 158q209 0 337 103.5t128 297.5q0 197 -128 301.5t-337 104.5q-207 0 -335 -104.5 t-128 -301.5q0 -195 128 -298t335 -103z" glyph-name="oacute" horiz-adv-x="1607" unicode="ó"/><glyph d="M358 1286l318 318h256l315 -318h-241l-205 203l-201 -203h-242zM802.5 -43q-325.5 0 -512 162t-186.5 440q0 281 186.5 443.5t512 162.5t512 -162.5t186.5 -443.5q0 -279 -186.5 -440.5t-512 -161.5zM803 158q209 0 337 103.5t128 297.5q0 197 -128 301.5t-337 104.5 q-207 0 -335 -104.5t-128 -301.5q0 -195 128 -298t335 -103z" glyph-name="ocircumflex" horiz-adv-x="1607" unicode="ô"/><glyph d="M1212 1597l125 -122q-45 -68 -127 -117t-190 -49q-92 0 -223 57t-207 57q-72 0 -116 -25.5t-83 -74.5l-123 121q45 68 127 118t191 50q90 0 221 -57.5t211 -57.5q116 0 194 100zM802.5 -43q-325.5 0 -512 162t-186.5 440q0 281 186.5 443.5t512 162.5t512 -162.5 t186.5 -443.5q0 -279 -186.5 -440.5t-512 -161.5zM803 158q209 0 337 103.5t128 297.5q0 197 -128 301.5t-337 104.5q-207 0 -335 -104.5t-128 -301.5q0 -195 128 -298t335 -103z" glyph-name="otilde" horiz-adv-x="1607" unicode="õ"/><glyph d="M532 1305q-59 0 -97 33.5t-38 82.5q0 51 38 85t97 34q57 0 94.5 -33.5t37.5 -85.5q0 -49 -38.5 -82.5t-93.5 -33.5zM1077 1305q-57 0 -96 33.5t-39 82.5q0 51 39 85t96.5 34t94 -33.5t36.5 -85.5q0 -49 -38 -82.5t-93 -33.5zM802.5 -43q-325.5 0 -512 162t-186.5 440 q0 281 186.5 443.5t512 162.5t512 -162.5t186.5 -443.5q0 -279 -186.5 -440.5t-512 -161.5zM803 158q209 0 337 103.5t128 297.5q0 197 -128 301.5t-337 104.5q-207 0 -335 -104.5t-128 -301.5q0 -195 128 -298t335 -103z" glyph-name="odieresis" horiz-adv-x="1607" unicode="ö"/><glyph d="M755.5 883q-63.5 0 -103.5 37.5t-40 87t40 87.5t103.5 38t102.5 -38t39 -87q0 -51 -39 -88t-102.5 -37zM1346 512h-1180v205h1180v-205zM755.5 96q-63.5 0 -103.5 39t-40 86q0 49 40 87t103.5 38t102.5 -37t39 -88q0 -47 -39 -86t-102.5 -39z" glyph-name="divide" horiz-adv-x="1511" unicode="÷"/><glyph d="M1217 1071q285 -158 284 -512q0 -279 -186.5 -440.5t-511.5 -161.5q-145 0 -273 35l-116 -182h-185l156 243q-281 156 -281 506q0 281 186.5 443.5t512.5 162.5q145 0 268 -35l117 183h184zM340 559q0 -217 162 -323l452 712q-76 16 -151 17q-207 0 -335 -104.5 t-128 -301.5zM803 158q209 0 337 103.5t128 297.5q0 223 -166 330l-455 -715q64 -16 156 -16z" glyph-name="oslash" horiz-adv-x="1607" unicode="ø"/><glyph d="M326 1604h344l319 -318h-201zM1200 1122h240v-1122h-240v217q-74 -121 -208 -189.5t-304 -68.5q-248 0 -380 143.5t-132 378.5v641h238v-624q0 -340 336 -340q307 0 450 274v690z" glyph-name="ugrave" unicode="ù"/><glyph d="M1260 1604l-463 -318h-201l319 318h345zM1200 1122h240v-1122h-240v217q-74 -121 -208 -189.5t-304 -68.5q-248 0 -380 143.5t-132 378.5v641h238v-624q0 -340 336 -340q307 0 450 274v690z" glyph-name="uacute" unicode="ú"/><glyph d="M346 1286l318 318h256l315 -318h-242l-205 203l-200 -203h-242zM1200 1122h240v-1122h-240v217q-74 -121 -208 -189.5t-304 -68.5q-248 0 -380 143.5t-132 378.5v641h238v-624q0 -340 336 -340q307 0 450 274v690z" glyph-name="ucircumflex" unicode="û"/><glyph d="M520 1305q-59 0 -97 33.5t-38 82.5q0 51 38 85t97 34q57 0 94 -33.5t37 -85.5q0 -49 -38 -82.5t-93 -33.5zM1065 1305q-57 0 -96 33.5t-39 82.5q0 51 39 85t96 34t94 -33.5t37 -85.5q0 -49 -38 -82.5t-93 -33.5zM1200 1122h240v-1122h-240v217q-74 -121 -208 -189.5 t-304 -68.5q-248 0 -380 143.5t-132 378.5v641h238v-624q0 -340 336 -340q307 0 450 274v690z" glyph-name="udieresis" unicode="ü"/><glyph d="M1202 1604l-463 -318h-200l319 318h344zM1182 1122h252l-848 -1532h-250l280 484l-585 1048h258l450 -819z" glyph-name="yacute" horiz-adv-x="1466" unicode="ý"/><glyph d="M940 1163q274 0 440 -166t166 -438t-166 -436t-440 -164q-174 0 -307 65.5t-209 174.5v-609h-240v1926h240v-594q76 111 209 176t307 65zM879 162q209 0 321.5 103.5t112.5 293.5q0 193 -113 296t-321 103q-307 0 -455 -229v-336q150 -231 455 -231z" glyph-name="thorn" horiz-adv-x="1652" unicode="þ"/><glyph d="M463 1305q-59 0 -97 33.5t-38 82.5q0 51 37.5 85t97.5 34q57 0 94 -33.5t37 -85.5q0 -49 -38 -82.5t-93 -33.5zM1008 1305q-57 0 -96.5 33.5t-39.5 82.5q0 51 39 85t96.5 34t94.5 -33.5t37 -85.5q0 -49 -38 -82.5t-93 -33.5zM1182 1122h252l-848 -1532h-250l280 484 l-585 1048h258l450 -819z" glyph-name="ydieresis" horiz-adv-x="1466" unicode="ÿ"/><glyph d="M1348 1823v-181h-840v181h840zM1571 0l-185 346h-919l-182 -346h-267l777 1434h270l774 -1434h-268zM578 555h700l-350 664z" glyph-name="Amacron" horiz-adv-x="1857" unicode="Ā"/><glyph d="M348 1511h840v-180h-840v180zM739 1163q297 0 464 -139t167 -399v-408q0 -127 51 -217h-247q-43 74 -44 158v2q-72 -88 -198.5 -144.5t-290.5 -56.5q-98 0 -191.5 20.5t-179.5 64.5t-139 124t-53 184.5t53 183t139 122.5t180.5 64.5t190.5 20.5q164 0 291 -56t198 -144 v82q0 350 -436 350q-233 0 -426 -113l-86 162q104 63 254.5 101t302.5 38zM1135 334v35q-117 203 -449 202q-88 0 -165 -15t-142.5 -67.5t-65.5 -136.5q0 -66 36 -111.5t95.5 -68t119 -32t122.5 -9.5q143 0 264.5 48.5t184.5 154.5z" glyph-name="amacron" horiz-adv-x="1542" unicode="ā"/><glyph d="M929.5 1585q-100.5 0 -176 34t-115.5 87t-59.5 106.5t-19.5 102.5h172q4 -70 57.5 -121t141.5 -51t141 52t57 120h172q0 -49 -19 -102.5t-59 -106.5t-116 -87t-176.5 -34zM1571 0l-185 346h-919l-182 -346h-267l777 1434h270l774 -1434h-268zM578 555h700l-350 664z" glyph-name="Abreve" horiz-adv-x="1857" unicode="Ă"/><glyph d="M1141 1604q0 -49 -19.5 -102.5t-59.5 -107t-116 -87t-176 -33.5t-176 33.5t-116 87t-59.5 106.5t-19.5 103h172q4 -70 57.5 -121t141.5 -51t141.5 52t57.5 120h172zM739 1163q297 0 464 -139t167 -399v-408q0 -127 51 -217h-247q-43 74 -44 158v2q-72 -88 -198.5 -144.5 t-290.5 -56.5q-98 0 -191.5 20.5t-179.5 64.5t-139 124t-53 184.5t53 183t139 122.5t180.5 64.5t190.5 20.5q164 0 291 -56t198 -144v82q0 350 -436 350q-233 0 -426 -113l-86 162q104 63 254.5 101t302.5 38zM1135 334v35q-117 203 -449 202q-88 0 -165 -15t-142.5 -67.5 t-65.5 -136.5q0 -66 36 -111.5t95.5 -68t119 -32t122.5 -9.5q143 0 264.5 48.5t184.5 154.5z" glyph-name="abreve" horiz-adv-x="1542" unicode="ă"/><glyph d="M1898 -348l50 -66q-92 -92 -246 -92q-119 0 -204 55.5t-85 163.5q0 96 64.5 173t175.5 114h-82l-185 346h-919l-182 -346h-267l777 1434h270l774 -1434h-2q-102 -37 -172 -110.5t-70 -157.5q0 -63 43 -97t109 -34q83 0 151 51zM578 555h700l-350 664z" glyph-name="Aogonek" horiz-adv-x="1857" unicode="Ą"/><glyph d="M1483 -348l49 -66q-92 -92 -246 -92q-119 0 -204 55.5t-85 163.5q0 96 64.5 173t175.5 114h-63q-43 74 -44 158v2q-72 -88 -198.5 -144.5t-290.5 -56.5q-98 0 -191.5 20.5t-179.5 64.5t-139 124t-53 184.5t53 183t139 122.5t180.5 64.5t190.5 20.5q164 0 291 -56 t198 -144v82q0 350 -436 350q-233 0 -426 -113l-86 162q104 63 255 101t302 38q297 0 464 -139t167 -399v-408q0 -127 51 -217q-102 -37 -171.5 -110.5t-69.5 -157.5q0 -63 43 -97t108 -34q84 0 152 51zM1135 334v35q-117 203 -449 202q-88 0 -165 -15t-142.5 -67.5 t-65.5 -136.5q0 -66 36 -111.5t95.5 -68t119 -32t122.5 -9.5q143 0 264.5 48.5t184.5 154.5z" glyph-name="aogonek" horiz-adv-x="1542" unicode="ą"/><glyph d="M1448 1917l-463 -318h-201l320 318h344zM997 174q371 0 527 254l227 -113q-106 -164 -302 -261t-458 -97q-403 0 -638.5 204t-235.5 556t237.5 556t646.5 204q254 0 449 -97.5t299 -259.5l-229 -114q-154 254 -523 254q-291 0 -460.5 -140.5t-169.5 -402.5t169.5 -402.5 t460.5 -140.5z" glyph-name="Cacute" horiz-adv-x="1822" unicode="Ć"/><glyph d="M1257 1604l-462 -318h-201l319 318h344zM1409 254q-172 -297 -610 -297q-322 0 -508.5 163t-186.5 439q0 279 185.5 442.5t509.5 163.5q428 0 604 -288l-225 -97q-102 186 -377 187q-207 0 -334 -104.5t-127 -303.5q0 -195 127 -299t334 -104q281 0 383 192z" glyph-name="cacute" horiz-adv-x="1474" unicode="ć"/><glyph d="M535 1599l317 318h256l315 -318h-241l-205 203l-201 -203h-241zM997 174q371 0 527 254l227 -113q-106 -164 -302 -261t-458 -97q-403 0 -638.5 204t-235.5 556t237.5 556t646.5 204q254 0 449 -97.5t299 -259.5l-229 -114q-154 254 -523 254q-291 0 -460.5 -140.5 t-169.5 -402.5t169.5 -402.5t460.5 -140.5z" glyph-name="Ccircumflex" horiz-adv-x="1822" unicode="Ĉ"/><glyph d="M344 1286l318 318h256l315 -318h-242l-205 203l-200 -203h-242zM1409 254q-172 -297 -610 -297q-322 0 -508.5 163t-186.5 439q0 279 185.5 442.5t509.5 163.5q428 0 604 -288l-225 -97q-102 186 -377 187q-207 0 -334 -104.5t-127 -303.5q0 -195 127 -299t334 -104 q281 0 383 192z" glyph-name="ccircumflex" horiz-adv-x="1474" unicode="ĉ"/><glyph d="M981 1618q-57 0 -92 29.5t-35 76.5q0 51 35 81t92 30q55 0 89 -29.5t34 -81.5q0 -47 -34 -76.5t-89 -29.5zM997 174q371 0 527 254l227 -113q-106 -164 -302 -261t-458 -97q-403 0 -638.5 204t-235.5 556t237.5 556t646.5 204q254 0 449 -97.5t299 -259.5l-229 -114 q-154 254 -523 254q-291 0 -460.5 -140.5t-169.5 -402.5t169.5 -402.5t460.5 -140.5z" glyph-name="Cdotaccent" horiz-adv-x="1822" unicode="Ċ"/><glyph d="M791 1305q-57 0 -92 29.5t-35 76.5q0 51 34.5 81t92.5 30q55 0 88.5 -30t33.5 -81q0 -47 -33.5 -76.5t-88.5 -29.5zM1409 254q-172 -297 -610 -297q-322 0 -508.5 163t-186.5 439q0 279 185.5 442.5t509.5 163.5q428 0 604 -288l-225 -97q-102 186 -377 187 q-207 0 -334 -104.5t-127 -303.5q0 -195 127 -299t334 -104q281 0 383 192z" glyph-name="cdotaccent" horiz-adv-x="1474" unicode="ċ"/><glyph d="M535 1917h241l203 -203l203 203h241l-315 -318h-256zM997 174q371 0 527 254l227 -113q-106 -164 -302 -261t-458 -97q-403 0 -638.5 204t-235.5 556t237.5 556t646.5 204q254 0 449 -97.5t299 -259.5l-229 -114q-154 254 -523 254q-291 0 -460.5 -140.5t-169.5 -402.5 t169.5 -402.5t460.5 -140.5z" glyph-name="Ccaron" horiz-adv-x="1822" unicode="Č"/><glyph d="M344 1604h242l202 -203l203 203h242l-315 -318h-256zM1409 254q-172 -297 -610 -297q-322 0 -508.5 163t-186.5 439q0 279 185.5 442.5t509.5 163.5q428 0 604 -288l-225 -97q-102 186 -377 187q-207 0 -334 -104.5t-127 -303.5q0 -195 127 -299t334 -104q281 0 383 192z " glyph-name="ccaron" horiz-adv-x="1474" unicode="č"/><glyph d="M496 1915h241l203 -203l203 203h241l-315 -318h-256zM944 1434q401 0 637 -192.5t236 -524.5t-235.5 -524.5t-637.5 -192.5h-727v1434h727zM926 215q291 0 465 130t174 371.5t-174 372t-465 130.5h-463v-1004h463z" glyph-name="Dcaron" horiz-adv-x="1933" unicode="Ď"/><glyph d="M713 1163q174 0 307 -65.5t209 -175.5v594h239v-1516h-239v199q-76 -109 -209 -174.5t-307 -65.5q-274 0 -440.5 164t-166.5 436t166.5 438t440.5 166zM1714 1456q70 0 113 -47t43 -113q0 -215 -207 -376l-51 67q113 123 131 217q-8 -8 -37 -8q-57 0 -97 37t-40 92 q0 57 41 94t104 37zM774 162q305 0 455 231v336q-147 229 -455 229q-209 0 -321.5 -103t-112.5 -296q0 -190 112.5 -293.5t321.5 -103.5z" glyph-name="dcaron" horiz-adv-x="1832" unicode="ď"/><glyph d="M981 1434q401 0 635.5 -192.5t234.5 -524.5t-234.5 -524.5t-635.5 -192.5h-731v643h-209v176h209v615h731zM961 215q293 0 465.5 128t172.5 374t-173 374t-465 128h-465v-400h440v-176h-440v-428h465z" glyph-name="Dcroat" horiz-adv-x="1968" unicode="Đ"/><glyph d="M1647 1341v-127h-179v-1214h-239v199q-76 -109 -209 -174.5t-307 -65.5q-274 0 -440.5 164t-166.5 436t166 438t441 166q174 0 307 -65.5t209 -175.5v292h-389v127h389v175h239v-175h179zM1229 393v336q-147 229 -455 229q-209 0 -321.5 -103t-112.5 -296 q0 -190 112.5 -293.5t321.5 -103.5q305 0 455 231z" glyph-name="dcroat" horiz-adv-x="1640" unicode="đ"/><glyph d="M492 1823h839v-181h-839v181zM461 215h1184v-215h-1428v1434h1407v-215h-1163v-383h979v-215h-979v-406z" glyph-name="Emacron" horiz-adv-x="1748" unicode="Ē"/><glyph d="M1214 1511v-180h-839v180h839zM340 508q16 -180 142 -271.5t341 -91.5q152 0 258.5 39t200.5 123l139 -149q-225 -201 -610 -201q-334 0 -520.5 162t-186.5 440q0 281 183.5 443.5t507.5 162.5q307 0 486 -156.5t179 -447.5q0 -35 -6 -53h-1114zM797 977q-180 0 -297 -76 t-150 -223l879 2q-74 297 -432 297z" glyph-name="emacron" horiz-adv-x="1554" unicode="ē"/><glyph d="M1284 1915q0 -49 -19.5 -102.5t-59.5 -106.5t-115.5 -87t-176 -34t-176 34t-115.5 87t-59.5 106.5t-19.5 102.5h172q4 -70 57 -121t141 -51t141.5 52t57.5 120h172zM461 215h1184v-215h-1428v1434h1407v-215h-1163v-383h979v-215h-979v-406z" glyph-name="Ebreve" horiz-adv-x="1748" unicode="Ĕ"/><glyph d="M794.5 1274q-100.5 0 -176 33.5t-115.5 87t-59.5 106.5t-19.5 103h172q4 -70 57.5 -121t141.5 -51t141 52t57 120h172q0 -49 -19.5 -102.5t-59 -107t-115.5 -87t-176.5 -33.5zM340 508q16 -180 142 -271.5t341 -91.5q152 0 258.5 39t200.5 123l139 -149 q-225 -201 -610 -201q-334 0 -520.5 162t-186.5 440q0 281 183.5 443.5t507.5 162.5q307 0 486 -156.5t179 -447.5q0 -35 -6 -53h-1114zM797 977q-180 0 -297 -76t-150 -223l879 2q-74 297 -432 297z" glyph-name="ebreve" horiz-adv-x="1554" unicode="ĕ"/><glyph d="M911 1616q-57 0 -92 29.5t-35 76.5q0 51 35 81t92 30q55 0 89 -29.5t34 -81.5q0 -47 -34 -76.5t-89 -29.5zM461 215h1184v-215h-1428v1434h1407v-215h-1163v-383h979v-215h-979v-406z" glyph-name="Edotaccent" horiz-adv-x="1748" unicode="Ė"/><glyph d="M795 1305q-57 0 -92 29.5t-35 76.5q0 51 34.5 81t92.5 30q55 0 89 -30t34 -81q0 -47 -34 -76.5t-89 -29.5zM340 508q16 -180 142 -271.5t341 -91.5q152 0 258.5 39t200.5 123l139 -149q-225 -201 -610 -201q-334 0 -520.5 162t-186.5 440q0 281 183.5 443.5t507.5 162.5 q307 0 486 -156.5t179 -447.5q0 -35 -6 -53h-1114zM797 977q-180 0 -297 -76t-150 -223l879 2q-74 297 -432 297z" glyph-name="edotaccent" horiz-adv-x="1554" unicode="ė"/><glyph d="M1706 -348l49 -66q-92 -92 -246 -92q-119 0 -203.5 55.5t-84.5 163.5q0 96 64.5 173t174.5 114h-1243v1434h1407v-215h-1163v-383h979v-215h-979v-406h1184v-215q-102 -37 -172 -110.5t-70 -157.5q0 -63 43 -97t108 -34q84 0 152 51z" glyph-name="Eogonek" horiz-adv-x="1748" unicode="Ę"/><glyph d="M340 508q16 -180 142 -271.5t341 -91.5q152 0 258.5 39t200.5 123l139 -149q-123 -109 -278 -158h4q-102 -37 -172 -110.5t-70 -157.5q0 -63 43 -97t109 -34q84 0 151 51l49 -66q-92 -92 -245 -92q-119 0 -204 55.5t-85 163.5q0 152 147 244h-59q-334 0 -520.5 162 t-186.5 440q0 281 183.5 443.5t507.5 162.5q307 0 486 -156.5t179 -447.5q0 -35 -6 -53h-1114zM797 977q-180 0 -297 -76t-150 -223l879 2q-74 297 -432 297z" glyph-name="eogonek" horiz-adv-x="1554" unicode="ę"/><glyph d="M467 1915h242l202 -203l203 203h242l-316 -318h-256zM461 215h1184v-215h-1428v1434h1407v-215h-1163v-383h979v-215h-979v-406z" glyph-name="Ecaron" horiz-adv-x="1748" unicode="Ě"/><glyph d="M924 1286h-256l-318 318h242l203 -203l202 203h242zM340 508q16 -180 142 -271.5t341 -91.5q152 0 258.5 39t200.5 123l139 -149q-225 -201 -610 -201q-334 0 -520.5 162t-186.5 440q0 281 183.5 443.5t507.5 162.5q307 0 486 -156.5t179 -447.5q0 -35 -6 -53h-1114z M797 977q-180 0 -297 -76t-150 -223l879 2q-74 297 -432 297z" glyph-name="ecaron" horiz-adv-x="1554" unicode="ě"/><glyph d="M567 1599l318 318h256l315 -318h-242l-204 203l-201 -203h-242zM1829 776v-454q-102 -164 -313 -264.5t-496 -100.5q-424 0 -663.5 202.5t-239.5 557t239.5 557.5t659.5 203q471 0 737 -285l-201 -143q-188 213 -534 213q-307 0 -479 -139.5t-172 -405.5t175 -405.5 t488 -139.5q416 0 561 229v164h-598v211h836z" glyph-name="Gcircumflex" horiz-adv-x="1943" unicode="Ĝ"/><glyph d="M389 1288l318 318h256l315 -318h-242l-205 203l-200 -203h-242zM1468 1122v-977q0 -156 -56 -273.5t-154.5 -186t-218 -102.5t-257.5 -34q-152 0 -310.5 40t-252.5 104l86 178q188 -123 453 -123q471 0 471 363v104q-78 -111 -217.5 -175.5t-300.5 -64.5q-279 0 -443 161 t-164 431q0 272 164 434t443 162q170 0 304 -63.5t214 -177.5v200h239zM774 170q301 0 455 242v313q-154 242 -455 242q-209 0 -321.5 -104.5t-112.5 -295t112.5 -294t321.5 -103.5z" glyph-name="gcircumflex" horiz-adv-x="1652" unicode="ĝ"/><glyph d="M1384 1917q0 -49 -19 -102.5t-59 -106.5t-116 -87t-176.5 -34t-176 34t-115.5 87t-59.5 106.5t-19.5 102.5h172q4 -70 57.5 -121t141.5 -51t141 52t57 120h172zM1829 776v-454q-102 -164 -313 -264.5t-496 -100.5q-424 0 -663.5 202.5t-239.5 557t239.5 557.5t659.5 203 q471 0 737 -285l-201 -143q-188 213 -534 213q-307 0 -479 -139.5t-172 -405.5t175 -405.5t488 -139.5q416 0 561 229v164h-598v211h836z" glyph-name="Gbreve" horiz-adv-x="1943" unicode="Ğ"/><glyph d="M1206 1606q0 -49 -19.5 -102.5t-59.5 -107t-115.5 -87t-176 -33.5t-176 33.5t-115.5 87t-59.5 106.5t-19.5 103h172q4 -70 57.5 -121t141.5 -51t141 52t57 120h172zM1468 1122v-977q0 -156 -56 -273.5t-154.5 -186t-218 -102.5t-257.5 -34q-152 0 -310.5 40t-252.5 104 l86 178q188 -123 453 -123q471 0 471 363v104q-78 -111 -217.5 -175.5t-300.5 -64.5q-279 0 -443 161t-164 431q0 272 164 434t443 162q170 0 304 -63.5t214 -177.5v200h239zM774 170q301 0 455 242v313q-154 242 -455 242q-209 0 -321.5 -104.5t-112.5 -295t112.5 -294 t321.5 -103.5z" glyph-name="gbreve" horiz-adv-x="1652" unicode="ğ"/><glyph d="M1014 1618q-57 0 -92 29.5t-35 76.5q0 51 34.5 81t92.5 30q55 0 89 -29.5t34 -81.5q0 -47 -34 -76.5t-89 -29.5zM1829 776v-454q-102 -164 -313 -264.5t-496 -100.5q-424 0 -663.5 202.5t-239.5 557t239.5 557.5t659.5 203q471 0 737 -285l-201 -143q-188 213 -534 213 q-307 0 -479 -139.5t-172 -405.5t175 -405.5t488 -139.5q416 0 561 229v164h-598v211h836z" glyph-name="Gdotaccent" horiz-adv-x="1943" unicode="Ġ"/><glyph d="M836 1307q-57 0 -92 29.5t-35 76.5q0 51 34.5 81t92.5 30q55 0 88.5 -30t33.5 -81q0 -47 -33.5 -76.5t-88.5 -29.5zM1468 1122v-977q0 -156 -56 -273.5t-154.5 -186t-218 -102.5t-257.5 -34q-152 0 -310.5 40t-252.5 104l86 178q188 -123 453 -123q471 0 471 363v104 q-78 -111 -217.5 -175.5t-300.5 -64.5q-279 0 -443 161t-164 431q0 272 164 434t443 162q170 0 304 -63.5t214 -177.5v200h239zM774 170q301 0 455 242v313q-154 242 -455 242q-209 0 -321.5 -104.5t-112.5 -295t112.5 -294t321.5 -103.5z" glyph-name="gdotaccent" horiz-adv-x="1652" unicode="ġ"/><glyph d="M1829 776v-454q-102 -164 -313 -264.5t-496 -100.5q-424 0 -663.5 202.5t-239.5 557t239.5 557.5t659.5 203q471 0 737 -285l-201 -143q-188 213 -534 213q-307 0 -479 -139.5t-172 -405.5t175 -405.5t488 -139.5q416 0 561 229v164h-598v211h836zM1014 -115 q72 0 117 -48t45 -122q0 -98 -56.5 -211.5t-156.5 -191.5l-64 67q127 129 145 234q-10 -10 -40 -10q-61 0 -102.5 40t-41.5 101q0 59 43 100t111 41z" glyph-name="Gcommaaccent" horiz-adv-x="1943" unicode="Ģ"/><glyph d="M829 1315q-72 0 -116.5 48t-44.5 122q0 98 56 211.5t157 191.5l63 -67q-127 -129 -145 -234q10 10 41 10q61 0 102 -39.5t41 -101.5q0 -59 -43 -100t-111 -41zM1468 1122v-977q0 -156 -56 -273.5t-154.5 -186t-218 -102.5t-257.5 -34q-152 0 -310.5 40t-252.5 104l86 178 q188 -123 453 -123q471 0 471 363v104q-78 -111 -217.5 -175.5t-300.5 -64.5q-279 0 -443 161t-164 431q0 272 164 434t443 162q170 0 304 -63.5t214 -177.5v200h239zM774 170q301 0 455 242v313q-154 242 -455 242q-209 0 -321.5 -104.5t-112.5 -295t112.5 -294 t321.5 -103.5z" glyph-name="gcommaaccent" horiz-adv-x="1652" unicode="ģ"/><glyph d="M559 1599l318 318h256l315 -318h-242l-205 203l-200 -203h-242zM1546 1434h246v-1434h-246v616h-1083v-616h-246v1434h246v-596h1083v596z" glyph-name="Hcircumflex" horiz-adv-x="2007" unicode="Ĥ"/><glyph d="M506 1679l-205 203l-201 -203h-241l317 318h256l316 -318h-242zM936 1163q248 0 380 -143t132 -379v-641h-238v625q0 340 -336 340q-307 0 -450 -275v-690h-240v1122v394h240v-402v-209q74 121 208 189.5t304 68.5z" glyph-name="hcircumflex" unicode="ĥ"/><glyph d="M2052 1176v-138h-217v-1038h-246v616h-1083v-616h-246v1038h-219v138h219v258h246v-258h1083v258h246v-258h217zM1589 838v200h-1083v-200h1083z" glyph-name="Hbar" horiz-adv-x="2091" unicode="Ħ"/><glyph d="M936 1163q248 0 380 -143t132 -379v-641h-238v625q0 340 -336 340q-307 0 -450 -275v-690h-240v1122v92h-188v127h188v175h240v-175h381v-127h-381v-100v-209q74 121 208 189.5t304 68.5z" glyph-name="hbar" unicode="ħ"/><glyph d="M750 1909l124 -123q-45 -68 -126.5 -117t-190.5 -49q-92 0 -223 57.5t-207 57.5q-72 0 -116 -26t-83 -75l-123 121q45 68 127 118t191 50q90 0 221 -57.5t211 -57.5q117 1 195 101zM463 0h-246v1434h246v-1434z" glyph-name="Itilde" horiz-adv-x="677" unicode="Ĩ"/><glyph d="M719 1597l125 -122q-45 -68 -127 -117t-191 -49q-92 0 -223 57t-207 57q-72 0 -115.5 -25.5t-82.5 -74.5l-123 121q45 68 127 118t190 50q92 0 223 -57.5t209 -57.5q117 0 195 100zM428 1122v-1122h-238v1122h238z" glyph-name="itilde" horiz-adv-x="618" unicode="ĩ"/><glyph d="M-82 1823h840v-181h-840v181zM463 0h-246v1434h246v-1434z" glyph-name="Imacron" horiz-adv-x="677" unicode="Ī"/><glyph d="M-111 1511h840v-180h-840v180zM428 1122v-1122h-238v1122h238z" glyph-name="imacron" horiz-adv-x="618" unicode="ī"/><glyph d="M711 1915q0 -49 -19.5 -102.5t-59.5 -106.5t-116 -87t-176 -34t-176 34t-116 87t-59.5 106.5t-19.5 102.5h172q4 -70 57.5 -121t141.5 -51t141.5 52t57.5 120h172zM463 0h-246v1434h246v-1434z" glyph-name="Ibreve" horiz-adv-x="677" unicode="Ĭ"/><glyph d="M682 1604q0 -49 -19.5 -102.5t-59.5 -107t-115.5 -87t-176 -33.5t-176.5 33.5t-115.5 87t-59 106.5t-19.5 103h172q4 -70 57 -121t141 -51t141.5 52t57.5 120h172zM428 1122v-1122h-238v1122h238z" glyph-name="ibreve" horiz-adv-x="618" unicode="ĭ"/><glyph d="M522 -348l49 -66q-92 -92 -245 -92q-119 0 -204 55.5t-85 163.5q0 96 64.5 173t174.5 114h-59v1434h246v-1434h-2q-102 -37 -172 -110.5t-70 -157.5q0 -63 43 -97t109 -34q83 0 151 51z" glyph-name="Iogonek" horiz-adv-x="677" unicode="Į"/><glyph d="M307.5 1276q-65.5 0 -109.5 39t-44 94q0 57 44 95t109.5 38t108.5 -38t43 -95q0 -55 -43 -94t-108.5 -39zM489 -348l50 -66q-92 -92 -246 -92q-119 0 -204 55.5t-85 163.5q0 96 64.5 173t175.5 114h-54v1122h238v-1122q-102 -37 -172 -110.5t-70 -157.5q0 -63 43 -97 t109 -34q83 0 151 51z" glyph-name="iogonek" horiz-adv-x="614" unicode="į"/><glyph d="M340 1616q-57 0 -92 29.5t-35 76.5q0 51 35 81t92 30q55 0 89 -29.5t34 -81.5q0 -47 -34 -76.5t-89 -29.5zM463 0h-246v1434h246v-1434z" glyph-name="Idotaccent" horiz-adv-x="677" unicode="İ"/><glyph d="M428 1122v-1122h-238v1122h238z" glyph-name="dotlessi" horiz-adv-x="618" unicode="ı"/><glyph d="M463 0h-246v1434h246v-1434zM883 348q63 -90 152 -131t229 -41q424 0 424 447v811h245v-830q0 -289 -169 -468t-500 -179q-385 0 -568 248z" glyph-name="IJ" horiz-adv-x="2121" unicode="Ĳ"/><glyph d="M307.5 1276q-65.5 0 -109.5 39t-44 94q0 57 44 95t109.5 38t108.5 -38t43 -95q0 -55 -43 -94t-108.5 -39zM921.5 1276q-65.5 0 -109.5 38t-44 95t43 94t111 37q66 0 108.5 -37t42.5 -94t-43 -95t-108.5 -38zM801 1122h239v-1210q0 -168 -98 -265.5t-262 -97.5 q-117 0 -221 43l55 177q49 -25 115 -25q80 0 126 51t46 137v1190zM428 1122v-1122h-238v1122h238z" glyph-name="ij" horiz-adv-x="1226" unicode="ĳ"/><glyph d="M686 1597l318 318h256l315 -318h-242l-205 203l-200 -203h-242zM205 348q63 -90 152 -131t229 -41q424 0 424 447v811h245v-830q0 -289 -168.5 -468t-500.5 -179q-385 0 -568 248z" glyph-name="Jcircumflex" horiz-adv-x="1443" unicode="Ĵ"/><glyph d="M-158 1286l318 318h256l315 -318h-242l-204 203l-201 -203h-242zM186 1122h238v-1210q0 -168 -96.5 -265.5t-255.5 -97.5q-125 0 -230 43l39 144q66 -29 139 -29q76 0 121 51.5t45 137.5v1226z" glyph-name="jcircumflex" horiz-adv-x="886" unicode="ĵ"/><glyph d="M1077 868l735 -868h-301l-620 725l-428 -346v-379h-246v1434h246v-787l975 787h331zM961 -115q72 0 116.5 -48t44.5 -122q0 -98 -56 -211.5t-157 -191.5l-63 67q127 129 145 234q-10 -10 -41 -10q-61 0 -102 40t-41 101q0 59 43 100t111 41z" glyph-name="Kcommaaccent" horiz-adv-x="1818" unicode="Ķ"/><glyph d="M899 678l549 -678h-274l-449 545l-301 -246v-299h-240v1516h240v-986l696 592h295zM770 -115q72 0 117 -48t45 -122q0 -98 -56.5 -211.5t-156.5 -191.5l-64 67q127 129 146 234q-10 -10 -41 -10q-61 0 -102.5 40t-41.5 101q0 59 43 100t111 41z" glyph-name="kcommaaccent" horiz-adv-x="1454" unicode="ķ"/><glyph d="M1176 0l-451 545l-301 -246v-299h-240v1122h240v-592l700 592h291l-516 -444l549 -678h-272z" glyph-name="kgreenlandic" horiz-adv-x="1454" unicode="ĸ"/><glyph d="M807 1915l-463 -318h-201l320 318h344zM463 217h1057v-217h-1303v1434h246v-1217z" glyph-name="Lacute" horiz-adv-x="1562" unicode="Ĺ"/><glyph d="M778 1997l-463 -318h-200l319 318h344zM428 0h-238v1516h238v-1516z" glyph-name="lacute" horiz-adv-x="618" unicode="ĺ"/><glyph d="M463 217h1057v-217h-1303v1434h246v-1217zM870 -115q72 0 117 -48t45 -122q0 -98 -56 -211.5t-157 -191.5l-63 67q127 129 145 234q-10 -10 -41 -10q-61 0 -102 40t-41 101q0 59 42.5 100t110.5 41z" glyph-name="Lcommaaccent" horiz-adv-x="1562" unicode="Ļ"/><glyph d="M428 0h-238v1516h238v-1516zM311 -115q72 0 117 -48t45 -122q0 -98 -56.5 -211.5t-156.5 -191.5l-63 67q127 129 145 234q-10 -10 -41 -10q-61 0 -102 40t-41 101q0 59 42.5 100t110.5 41z" glyph-name="lcommaaccent" horiz-adv-x="618" unicode="ļ"/><glyph d="M973 1473q72 0 117 -48.5t45 -121.5q0 -98 -56.5 -212t-156.5 -192l-64 68q127 129 146 233q-10 -10 -41 -10q-61 0 -102.5 40t-41.5 101q0 59 43 100.5t111 41.5zM463 217h1057v-217h-1303v1434h246v-1217z" glyph-name="Lcaron" horiz-adv-x="1562" unicode="Ľ"/><glyph d="M428 0h-238v1516h238v-1516zM684 1456q70 0 112 -47t42 -113q0 -217 -205 -376l-51 67q113 123 131 217q-8 -8 -37 -8q-59 0 -98 37t-39 92q0 57 41 94t104 37z" glyph-name="lcaron" horiz-adv-x="802" unicode="ľ"/><glyph d="M463 207h1057v-207h-1303v1434h246v-1227zM936 668q-68 0 -113 41t-45 100q0 61 45 102t113 41t112 -41t44 -102q0 -59 -44 -100t-112 -41z" glyph-name="Ldot" horiz-adv-x="1562" unicode="Ŀ"/><glyph d="M428 0h-238v1516h238v-1516zM720.5 713q-67.5 0 -112.5 41t-45 100q0 61 44 101t114 40q68 0 112 -40t44 -101q0 -59 -44.5 -100t-112 -41z" glyph-name="ldot" horiz-adv-x="847" unicode="ŀ"/><glyph d="M518 217h1057v-217h-1303v606l-213 -98v184l213 101v641h246v-527l412 193v-187l-412 -192v-504z" glyph-name="Lslash" horiz-adv-x="1617" unicode="Ł"/><glyph d="M713 1036v-182l-224 -102v-752h-237v643l-219 -100v186l219 98v689h237v-580z" glyph-name="lslash" horiz-adv-x="745" unicode="ł"/><glyph d="M1473 1915l-463 -318h-201l319 318h345zM1552 1434h240v-1434h-217l-1120 1130v-1130h-238v1434h262l1073 -1088v1088z" glyph-name="Nacute" horiz-adv-x="2007" unicode="Ń"/><glyph d="M1282 1604l-463 -318h-201l320 318h344zM424 0h-240v1122h240v-217q74 121 208 189.5t304 68.5q248 0 380 -143t132 -379v-641h-238v625q0 340 -336 340q-307 0 -450 -275v-690z" glyph-name="nacute" unicode="ń"/><glyph d="M1552 1434h240v-1434h-217l-1120 1130v-1130h-238v1434h262l1073 -1088v1088zM1008 -115q72 0 116.5 -48t44.5 -122q0 -98 -56 -211.5t-157 -191.5l-63 67q127 129 145 234q-10 -10 -41 -10q-61 0 -102 40t-41 101q0 59 43 100t111 41z" glyph-name="Ncommaaccent" horiz-adv-x="2007" unicode="Ņ"/><glyph d="M424 0h-240v1122h240v-217q74 121 208 189.5t304 68.5q248 0 380 -143t132 -379v-641h-238v625q0 340 -336 340q-307 0 -450 -275v-690zM813 -115q72 0 117 -48t45 -122q0 -98 -56.5 -211.5t-156.5 -191.5l-64 67q127 129 146 234q-10 -10 -41 -10q-61 0 -102.5 40 t-41.5 101q0 59 43 100t111 41z" glyph-name="ncommaaccent" unicode="ņ"/><glyph d="M561 1915h242l203 -203l202 203h242l-315 -318h-256zM1552 1434h240v-1434h-217l-1120 1130v-1130h-238v1434h262l1073 -1088v1088z" glyph-name="Ncaron" horiz-adv-x="2007" unicode="Ň"/><glyph d="M371 1604h241l203 -203l203 203h242l-316 -318h-256zM424 0h-240v1122h240v-217q74 121 208 189.5t304 68.5q248 0 380 -143t132 -379v-641h-238v625q0 340 -336 340q-307 0 -450 -275v-690z" glyph-name="ncaron" unicode="ň"/><glyph d="M223 1466q70 0 114 -48t44 -118q0 -100 -55.5 -210.5t-153.5 -188.5l-59 68q121 127 139 235q-6 -12 -39 -12q-59 0 -100 40t-41 97q0 59 42.5 98t108.5 39zM672 0h-238v1122h238v-229q168 270 514 270q248 0 380 -143t132 -379v-641h-240v629q0 168 -85 256t-251 88 q-303 0 -450 -279v-694z" glyph-name="napostrophe" horiz-adv-x="1871" unicode="ŉ"/><glyph d="M1792 1434v-1381h-2v-100q0 -190 -106.5 -297t-284.5 -107q-135 0 -230 39l48 176q51 -23 131 -22q102 0 154 49t52 158v74l-1099 1107v-1130h-238v1434h262l1071 -1088v1088h242z" glyph-name="Eng" horiz-adv-x="2007" unicode="Ŋ"/><glyph d="M936 1163q248 0 380 -143t132 -379v-641v-88q0 -170 -98.5 -266.5t-264.5 -96.5q-111 0 -221 43l54 168q61 -20 118 -20q82 0 128 43t46 119v299v426q0 340 -336 340q-305 0 -450 -277v-690h-240v1122h240v-225q74 127 207 196.5t305 69.5z" glyph-name="eng" unicode="ŋ"/><glyph d="M588 1823h839v-181h-839v181zM1007.5 -43q-413.5 0 -652 202.5t-238.5 557t238.5 557.5t652 203t652 -203t238.5 -557.5t-238.5 -557t-652 -202.5zM1008 174q295 0 467 142.5t172 400.5t-172 400.5t-467 142.5t-468 -142.5t-173 -400.5t172 -400.5t469 -142.5z" glyph-name="Omacron" horiz-adv-x="2015" unicode="Ō"/><glyph d="M383 1511h840v-180h-840v180zM802.5 -43q-325.5 0 -512 162t-186.5 440q0 281 186.5 443.5t512 162.5t512 -162.5t186.5 -443.5q0 -279 -186.5 -440.5t-512 -161.5zM803 158q209 0 337 103.5t128 297.5q0 197 -128 301.5t-337 104.5q-207 0 -335 -104.5t-128 -301.5 q0 -195 128 -298t335 -103z" glyph-name="omacron" horiz-adv-x="1607" unicode="ō"/><glyph d="M1380 1915q0 -49 -19.5 -102.5t-59 -106.5t-115.5 -87t-176.5 -34t-176 34t-115.5 87t-59.5 106.5t-19.5 102.5h172q4 -70 57.5 -121t141.5 -51t141 52t57 120h172zM1007.5 -43q-413.5 0 -652 202.5t-238.5 557t238.5 557.5t652 203t652 -203t238.5 -557.5t-238.5 -557 t-652 -202.5zM1008 174q295 0 467 142.5t172 400.5t-172 400.5t-467 142.5t-468 -142.5t-173 -400.5t172 -400.5t469 -142.5z" glyph-name="Obreve" horiz-adv-x="2015" unicode="Ŏ"/><glyph d="M1176 1604q0 -49 -19.5 -102.5t-59.5 -107t-116 -87t-176 -33.5t-176 33.5t-116 87t-59.5 106.5t-19.5 103h172q4 -70 57.5 -121t141.5 -51t141 52t58 120h172zM802.5 -43q-325.5 0 -512 162t-186.5 440q0 281 186.5 443.5t512 162.5t512 -162.5t186.5 -443.5 q0 -279 -186.5 -440.5t-512 -161.5zM803 158q209 0 337 103.5t128 297.5q0 197 -128 301.5t-337 104.5q-207 0 -335 -104.5t-128 -301.5q0 -195 128 -298t335 -103z" glyph-name="obreve" horiz-adv-x="1607" unicode="ŏ"/><glyph d="M1163 1915l-338 -318h-229l336 318h231zM1593 1915l-336 -318h-231l336 318h231zM1007.5 -43q-413.5 0 -652 202.5t-238.5 557t238.5 557.5t652 203t652 -203t238.5 -557.5t-238.5 -557t-652 -202.5zM1008 174q295 0 467 142.5t172 400.5t-172 400.5t-467 142.5 t-468 -142.5t-173 -400.5t172 -400.5t469 -142.5z" glyph-name="Ohungarumlaut" horiz-adv-x="2015" unicode="Ő"/><glyph d="M958 1604l-337 -318h-230l336 318h231zM1389 1604l-336 -318h-232l336 318h232zM802.5 -43q-325.5 0 -512 162t-186.5 440q0 281 186.5 443.5t512 162.5t512 -162.5t186.5 -443.5q0 -279 -186.5 -440.5t-512 -161.5zM803 158q209 0 337 103.5t128 297.5q0 197 -128 301.5 t-337 104.5q-207 0 -335 -104.5t-128 -301.5q0 -195 128 -298t335 -103z" glyph-name="ohungarumlaut" horiz-adv-x="1607" unicode="ő"/><glyph d="M1716 215h1186v-215h-1429h-484q-401 0 -636.5 192.5t-235.5 524.5t235.5 524.5t636.5 192.5h725h1168v-215h-1166v-383h981v-215h-981v-406zM1473 213v1008h-465q-293 0 -467 -129t-174 -375t174 -375t467 -129h465z" glyph-name="OE" horiz-adv-x="3004" unicode="Œ"/><glyph d="M1501 508q16 -180 142 -271.5t342 -91.5q152 0 258 37t202 119l138 -143q-225 -201 -611 -201q-410 0 -592 238q-182 -238 -577 -238q-326 0 -512.5 162t-186.5 440q0 281 186.5 443.5t512.5 162.5q391 0 577 -237q180 238 576 237q309 0 488 -156.5t179 -447.5 q0 -35 -6 -53h-1116zM1958 977q-178 0 -296 -77t-151 -222l879 2q-72 297 -432 297zM803 158q207 0 336 104.5t129 296.5q0 197 -128 301.5t-337 104.5q-207 0 -335 -104.5t-128 -301.5q0 -193 128 -297t335 -104z" glyph-name="oe" horiz-adv-x="2715" unicode="œ"/><glyph d="M1380 1915l-462 -318h-201l319 318h344zM1815 0h-304l-444 520h-604v-520h-246v1434h975q258 0 419 -120t161 -337q0 -180 -114 -295t-308 -150zM461 731h715q344 0 344 244t-344 244h-715v-488z" glyph-name="Racute" horiz-adv-x="1900" unicode="Ŕ"/><glyph d="M1036 1604l-463 -318h-200l319 318h344zM424 0h-240v1122h240v-256q66 133 209 206t321 73v-209q-193 0 -334 -81t-196 -234v-621z" glyph-name="racute" horiz-adv-x="989" unicode="ŕ"/><glyph d="M1350 532l465 -532h-304l-444 520h-604v-520h-246v1434h975q258 0 419 -120t161 -337q0 -180 -113.5 -295t-308.5 -150zM461 731h715q344 0 344 244t-344 244h-715v-488zM956 -115q72 0 117 -48t45 -122q0 -98 -56 -211.5t-157 -191.5l-63 67q127 129 145 234 q-10 -10 -41 -10q-61 0 -102 40t-41 101q0 59 42.5 100t110.5 41z" glyph-name="Rcommaaccent" horiz-adv-x="1900" unicode="Ŗ"/><glyph d="M424 0h-240v1122h240v-256q66 133 209 206t321 73v-209q-193 0 -334 -81t-196 -234v-621zM305 -115q72 0 117 -48t45 -122q0 -98 -56.5 -211.5t-156.5 -191.5l-64 67q127 129 146 234q-10 -10 -41 -10q-61 0 -102 40t-41 101q0 59 42.5 100t110.5 41z" glyph-name="rcommaaccent" horiz-adv-x="989" unicode="ŗ"/><glyph d="M1040 1597h-256l-317 318h242l202 -203l203 203h242zM1815 0h-304l-444 520h-604v-520h-246v1434h975q258 0 419 -120t161 -337q0 -180 -114 -295t-308 -150zM461 731h715q344 0 344 244t-344 244h-715v-488z" glyph-name="Rcaron" horiz-adv-x="1900" unicode="Ř"/><glyph d="M123 1604h242l202 -203l203 203h242l-316 -318h-256zM424 0h-240v1122h240v-256q66 133 209 206t321 73v-209q-193 0 -334 -81t-196 -234v-621z" glyph-name="rcaron" horiz-adv-x="989" unicode="ř"/><glyph d="M1362 1915l-463 -318h-201l320 318h344zM934 848q180 -14 309 -40t235.5 -73t160 -125t53.5 -186q0 -209 -200 -338t-556 -129q-518 0 -856 291l153 174q281 -252 713 -252q240 0 368 60.5t128 172.5q0 104 -124 148.5t-417 69.5q-164 14 -290 38.5t-240.5 69.5t-176 123 t-61.5 182q0 207 210 325t531 118q229 0 423 -63.5t325 -174.5l-156 -168q-217 188 -587 193q-123 2 -230.5 -17.5t-187.5 -70t-80 -125.5q0 -102 134 -141t419 -62z" glyph-name="Sacute" horiz-adv-x="1777" unicode="Ś"/><glyph d="M1188 1604l-463 -318h-201l320 318h344zM756 676q598 -43 598 -346q0 -164 -157 -268.5t-443 -104.5q-412 0 -676 231l129 142q217 -186 553 -187q164 0 265 42t101 124q0 80 -97 116t-312 52q-596 43 -596 334q0 164 159.5 259t442.5 95q164 0 317.5 -50t257.5 -128 l-124 -156q-186 145 -463 148q-143 0 -253 -36t-110 -118q0 -78 100.5 -107.5t307.5 -41.5z" glyph-name="sacute" horiz-adv-x="1433" unicode="ś"/><glyph d="M451 1597l317 318h256l315 -318h-241l-205 203l-201 -203h-241zM934 848q180 -14 309 -40t235.5 -73t160 -125t53.5 -186q0 -209 -200 -338t-556 -129q-518 0 -856 291l153 174q281 -252 713 -252q240 0 368 60.5t128 172.5q0 104 -124 148.5t-417 69.5 q-164 14 -290 38.5t-240.5 69.5t-176 123t-61.5 182q0 207 210 325t531 118q229 0 423 -63.5t325 -174.5l-156 -168q-217 188 -587 193q-123 2 -230.5 -17.5t-187.5 -70t-80 -125.5q0 -102 134 -141t419 -62z" glyph-name="Scircumflex" horiz-adv-x="1777" unicode="Ŝ"/><glyph d="M274 1286l318 318h256l315 -318h-241l-205 203l-201 -203h-242zM756 676q598 -43 598 -346q0 -164 -157 -268.5t-443 -104.5q-412 0 -676 231l129 142q217 -186 553 -187q164 0 265 42t101 124q0 80 -97 116t-312 52q-596 43 -596 334q0 164 159.5 259t442.5 95 q164 0 317.5 -50t257.5 -128l-124 -156q-186 145 -463 148q-143 0 -253 -36t-110 -118q0 -78 100.5 -107.5t307.5 -41.5z" glyph-name="scircumflex" horiz-adv-x="1433" unicode="ŝ"/><glyph d="M934 848q180 -14 309 -40t235.5 -73t160 -125t53.5 -186q0 -209 -200 -338t-556 -129q-518 0 -856 291l153 174q281 -252 713 -252q240 0 368 60.5t128 172.5q0 104 -124 148.5t-417 69.5q-164 14 -290 38.5t-240.5 69.5t-176 123t-61.5 182q0 207 210 325t531 118 q229 0 423 -63.5t325 -174.5l-156 -168q-217 188 -587 193q-123 2 -230.5 -17.5t-187.5 -70t-80 -125.5q0 -102 134 -141t419 -62zM1014 -111l-262 -327l-174 47l208 317z" glyph-name="Scedilla" horiz-adv-x="1777" unicode="Ş"/><glyph d="M756 676q598 -43 598 -346q0 -164 -157 -268.5t-443 -104.5q-412 0 -676 231l129 142q217 -186 553 -187q164 0 265 42t101 124q0 80 -97 116t-312 52q-596 43 -596 334q0 164 159.5 259t442.5 95q164 0 317.5 -50t257.5 -128l-124 -156q-186 145 -463 148 q-143 0 -253 -36t-110 -118q0 -78 100.5 -107.5t307.5 -41.5zM827 -111l-262 -327l-174 47l209 317z" glyph-name="scedilla" horiz-adv-x="1433" unicode="ş"/><glyph d="M451 1915h241l203 -203l203 203h241l-315 -318h-256zM934 848q180 -14 309 -40t235.5 -73t160 -125t53.5 -186q0 -209 -200 -338t-556 -129q-518 0 -856 291l153 174q281 -252 713 -252q240 0 368 60.5t128 172.5q0 104 -124 148.5t-417 69.5q-164 14 -290 38.5 t-240.5 69.5t-176 123t-61.5 182q0 207 210 325t531 118q229 0 423 -63.5t325 -174.5l-156 -168q-217 188 -587 193q-123 2 -230.5 -17.5t-187.5 -70t-80 -125.5q0 -102 134 -141t419 -62z" glyph-name="Scaron" horiz-adv-x="1777" unicode="Š"/><glyph d="M274 1604h242l203 -203l203 203h241l-315 -318h-256zM756 676q598 -43 598 -346q0 -164 -157 -268.5t-443 -104.5q-412 0 -676 231l129 142q217 -186 553 -187q164 0 265 42t101 124q0 80 -97 116t-312 52q-596 43 -596 334q0 164 159.5 259t442.5 95q164 0 317.5 -50 t257.5 -128l-124 -156q-186 145 -463 148q-143 0 -253 -36t-110 -118q0 -78 100.5 -107.5t307.5 -41.5z" glyph-name="scaron" horiz-adv-x="1433" unicode="š"/><glyph d="M1589 1434v-215h-653v-1219h-246v1219h-649v215h1548zM913 -92l-262 -328l-174 47l209 318z" glyph-name="Tcommaaccent" horiz-adv-x="1630" unicode="Ţ"/><glyph d="M258 309v623h-217v190h217v260h240v-260h489v-190h-489v-584q0 -90 60 -138t153 -48q100 0 223 67l63 -166q-156 -104 -346 -104q-172 0 -282.5 91t-110.5 259zM248 -391l209 317l227 -37l-262 -327z" glyph-name="tcommaaccent" horiz-adv-x="1034" unicode="ţ"/><glyph d="M369 1915h241l203 -203l203 203h241l-315 -318h-256zM1589 1434v-215h-653v-1219h-246v1219h-649v215h1548z" glyph-name="Tcaron" horiz-adv-x="1630" unicode="Ť"/><glyph d="M762 1487q-57 0 -98 39t-41 94t41 93t104 38q72 0 114 -47t42 -113q0 -221 -205 -377l-51 66q111 125 131 219q-12 -12 -37 -12zM934 229l63 -166q-156 -104 -346 -104q-172 0 -282.5 91t-110.5 259v623h-217v190h217v260h240v-260h489v-190h-489v-584q0 -90 60 -138 t153 -48q100 -1 223 67z" glyph-name="tcaron" horiz-adv-x="1056" unicode="ť"/><glyph d="M1589 1219h-653v-420h299v-189h-299v-610h-246v610h-295v189h295v420h-649v215h1548v-215z" glyph-name="Tbar" horiz-adv-x="1630" unicode="Ŧ"/><glyph d="M934 229l63 -166q-156 -104 -346 -104q-172 0 -282.5 91t-110.5 259v316h-154v129h154v178h-217v190h217v260h240v-260h489v-190h-489v-178h413v-129h-413v-277q0 -90 60 -138t153 -48q100 -1 223 67z" glyph-name="tbar" horiz-adv-x="1034" unicode="ŧ"/><glyph d="M1378 1909l125 -123q-45 -68 -127 -117t-190 -49q-92 0 -223.5 57.5t-206.5 57.5q-72 0 -116 -26t-83 -75l-123 121q45 68 127 118t191 50q92 0 223 -57.5t209 -57.5q116 1 194 101zM1503 1434h246v-758q0 -326 -204 -522.5t-576 -196.5q-371 0 -575 196.5t-204 522.5 v758h246v-742q0 -244 139.5 -380t393.5 -136q256 0 395 136.5t139 379.5v742z" glyph-name="Utilde" horiz-adv-x="1937" unicode="Ũ"/><glyph d="M1200 1597l125 -122q-45 -68 -127 -117t-190 -49q-92 0 -223.5 57t-206.5 57q-72 0 -116 -25.5t-83 -74.5l-123 121q45 68 127 118t190 50q90 0 221.5 -57.5t211.5 -57.5q116 0 194 100zM1200 1122h240v-1122h-240v217q-74 -121 -208 -189.5t-304 -68.5 q-248 0 -380 143.5t-132 378.5v641h238v-624q0 -340 336 -340q307 0 450 274v690z" glyph-name="utilde" unicode="ũ"/><glyph d="M549 1823h840v-181h-840v181zM1503 1434h246v-758q0 -326 -204 -522.5t-576 -196.5q-371 0 -575 196.5t-204 522.5v758h246v-742q0 -244 139.5 -380t393.5 -136q256 0 395 136.5t139 379.5v742z" glyph-name="Umacron" horiz-adv-x="1937" unicode="Ū"/><glyph d="M371 1511h839v-180h-839v180zM1200 1122h240v-1122h-240v217q-74 -121 -208 -189.5t-304 -68.5q-248 0 -380 143.5t-132 378.5v641h238v-624q0 -340 336 -340q307 0 450 274v690z" glyph-name="umacron" unicode="ū"/><glyph d="M1341 1915q0 -49 -19 -102.5t-59 -106.5t-116 -87t-176.5 -34t-176 34t-115.5 87t-59.5 106.5t-19.5 102.5h172q4 -70 57.5 -121t141.5 -51t141 52t57 120h172zM1503 1434h246v-758q0 -326 -204 -522.5t-576 -196.5q-371 0 -575 196.5t-204 522.5v758h246v-742 q0 -244 139.5 -380t393.5 -136q256 0 395 136.5t139 379.5v742z" glyph-name="Ubreve" horiz-adv-x="1937" unicode="Ŭ"/><glyph d="M1163 1604q0 -49 -19.5 -102.5t-59.5 -107t-115.5 -87t-176 -33.5t-176 33.5t-115.5 87t-59.5 106.5t-19.5 103h172q4 -70 57.5 -121t141.5 -51t141 52t57 120h172zM1200 1122h240v-1122h-240v217q-74 -121 -208 -189.5t-304 -68.5q-248 0 -380 143.5t-132 378.5v641h238 v-624q0 -340 336 -340q307 0 450 274v690z" glyph-name="ubreve" unicode="ŭ"/><glyph d="M969 1581q-125 0 -205 59.5t-80 168t80 169t205 60.5t205.5 -60.5t80.5 -169t-80.5 -168t-205.5 -59.5zM838 1808q0 -57 35.5 -87.5t97 -30.5t98.5 30.5t37 87.5q0 55 -37 87t-98.5 32t-97 -32t-35.5 -87zM1503 1434h246v-758q0 -326 -204 -522.5t-576 -196.5 q-371 0 -575 196.5t-204 522.5v758h246v-742q0 -244 139.5 -380t393.5 -136q256 0 395 136.5t139 379.5v742z" glyph-name="Uring" horiz-adv-x="1937" unicode="Ů"/><glyph d="M790.5 1270q-124.5 0 -204.5 59.5t-80 168t80 168.5t204.5 60t205.5 -60t81 -168.5t-81 -168t-205.5 -59.5zM659 1497q0 -57 36 -88t97.5 -31t98.5 31t37 88q0 55 -37 87t-98.5 32t-97.5 -32t-36 -87zM1200 1122h240v-1122h-240v217q-74 -121 -208 -189.5t-304 -68.5 q-248 0 -380 143.5t-132 378.5v641h238v-624q0 -340 336 -340q307 0 450 274v690z" glyph-name="uring" unicode="ů"/><glyph d="M1124 1915l-338 -318h-229l336 318h231zM1554 1915l-335 -318h-232l336 318h231zM1503 1434h246v-758q0 -326 -204 -522.5t-576 -196.5q-371 0 -575 196.5t-204 522.5v758h246v-742q0 -244 139.5 -380t393.5 -136q256 0 395 136.5t139 379.5v742z" glyph-name="Uhungarumlaut" horiz-adv-x="1937" unicode="Ű"/><glyph d="M946 1604l-338 -318h-229l336 318h231zM1376 1604l-336 -318h-231l336 318h231zM1200 1122h240v-1122h-240v217q-74 -121 -208 -189.5t-304 -68.5q-248 0 -380 143.5t-132 378.5v641h238v-624q0 -340 336 -340q307 0 450 274v690z" glyph-name="uhungarumlaut" unicode="ű"/><glyph d="M1503 1434h246v-758q0 -248 -122 -425t-349 -251h2q-102 -37 -172 -110.5t-70 -157.5q0 -63 43 -97t109 -34q84 0 151 51l50 -66q-92 -92 -246 -92q-119 0 -204 55.5t-85 163.5q0 150 148 244h-35q-371 0 -575 196.5t-204 522.5v758h246v-742q0 -244 139.5 -380 t393.5 -136q256 0 395 136.5t139 379.5v742z" glyph-name="Uogonek" horiz-adv-x="1937" unicode="Ų"/><glyph d="M1479 -348l49 -66q-92 -92 -246 -92q-119 0 -204 55.5t-85 163.5q0 96 64.5 173t175.5 114h-33v217q-74 -121 -208 -189.5t-304 -68.5q-248 0 -380 143.5t-132 378.5v641h238v-624q0 -340 336 -340q307 0 450 274v690h240v-1122h-23q-102 -37 -171.5 -110.5t-69.5 -157.5 q0 -63 43 -97t108 -34q84 0 152 51z" glyph-name="uogonek" unicode="ų"/><glyph d="M805 1597l317 318h256l316 -318h-242l-205 203l-200 -203h-242zM2193 1434h256l-524 -1434h-254l-422 1157l-424 -1157h-252l-526 1434h262l396 -1147l425 1147h242l424 -1147z" glyph-name="Wcircumflex" horiz-adv-x="2496" unicode="Ŵ"/><glyph d="M588 1286l317 318h256l316 -318h-242l-205 203l-201 -203h-241zM1772 1122h235l-414 -1122h-237l-324 879l-327 -879h-240l-414 1122h242l307 -864l320 864h225l319 -864z" glyph-name="wcircumflex" horiz-adv-x="2060" unicode="ŵ"/><glyph d="M408 1597l317 318h256l315 -318h-241l-205 203l-201 -203h-241zM23 1434h284l547 -727l543 727h282l-704 -938v-496h-246v496z" glyph-name="Ycircumflex" horiz-adv-x="1701" unicode="Ŷ"/><glyph d="M289 1286l317 318h256l316 -318h-242l-205 203l-201 -203h-241zM1182 1122h252l-848 -1532h-250l280 484l-585 1048h258l450 -819z" glyph-name="ycircumflex" horiz-adv-x="1466" unicode="ŷ"/><glyph d="M582 1616q-59 0 -97.5 33.5t-38.5 83.5q0 51 38 84.5t98 33.5q57 0 94 -33.5t37 -84.5q0 -49 -38 -83t-93 -34zM1126 1616q-57 0 -96 33.5t-39 83.5q0 51 39 84.5t96.5 33.5t94 -33.5t36.5 -84.5q0 -49 -38 -83t-93 -34zM23 1434h284l547 -727l543 727h282l-704 -938 v-496h-246v496z" glyph-name="Ydieresis" horiz-adv-x="1701" unicode="Ÿ"/><glyph d="M1376 1915l-463 -318h-200l319 318h344zM1614 1434v-172l-1149 -1051h1182v-211h-1551v172l1149 1051h-1112v211h1481z" glyph-name="Zacute" horiz-adv-x="1744" unicode="Ź"/><glyph d="M1178 1604l-463 -318h-201l320 318h344zM1276 1122v-157l-854 -775h878v-192h-1214v160l852 774h-823v190h1161z" glyph-name="zacute" horiz-adv-x="1390" unicode="ź"/><glyph d="M907 1616q-57 0 -92 29.5t-35 76.5q0 51 35 81t92 30q55 0 89 -29.5t34 -81.5q0 -47 -34 -76.5t-89 -29.5zM1614 1434v-172l-1149 -1051h1182v-211h-1551v172l1149 1051h-1112v211h1481z" glyph-name="Zdotaccent" horiz-adv-x="1744" unicode="Ż"/><glyph d="M709 1305q-57 0 -92 29.5t-35 76.5q0 51 34.5 81t92.5 30q55 0 88.5 -30t33.5 -81q0 -47 -33.5 -76.5t-88.5 -29.5zM1276 1122v-157l-854 -775h878v-192h-1214v160l852 774h-823v190h1161z" glyph-name="zdotaccent" horiz-adv-x="1390" unicode="ż"/><glyph d="M463 1915h242l202 -203l203 203h242l-316 -318h-256zM1614 1434v-172l-1149 -1051h1182v-211h-1551v172l1149 1051h-1112v211h1481z" glyph-name="Zcaron" horiz-adv-x="1744" unicode="Ž"/><glyph d="M264 1604h242l203 -203l202 203h242l-315 -318h-256zM1276 1122v-157l-854 -775h878v-192h-1214v160l852 774h-823v190h1161z" glyph-name="zcaron" horiz-adv-x="1390" unicode="ž"/><glyph d="M1106 1292q-88 0 -148.5 -46t-68.5 -136l-31 -301h371l-15 -150h-372l-37 -366q-18 -158 -131 -248t-266 -90q-168 0 -295 72l67 159q80 -45 174 -45q90 0 149.5 46t67.5 137l37 335h-375l15 150h375l36 332q14 156 127 247t265 91q174 0 297 -72l-70 -160 q-86 45 -172 45z" glyph-name="florin" horiz-adv-x="1386" unicode="ƒ"/><glyph d="M928 1581q-125 0 -205 59.5t-80 167.5q0 113 86 172l229 250h252l-245 -194q111 -8 180 -67.5t69 -160.5q0 -109 -80.5 -168t-205.5 -59zM1065 1808q0 55 -37 87t-98.5 32t-97 -31.5t-35.5 -87.5q0 -57 35.5 -87.5t97 -30.5t98.5 30.5t37 87.5zM1571 0l-185 346h-919 l-182 -346h-267l777 1434h270l774 -1434h-268zM578 555h700l-350 664z" glyph-name="Aringacute" horiz-adv-x="1857" unicode="Ǻ"/><glyph d="M483 1497q0 94 62 152h-2l250 268h251l-245 -193q113 -6 184.5 -66.5t71.5 -160.5q0 -109 -81 -168t-206 -59t-205 59t-80 168zM905 1497q0 55 -37 87t-98 32t-97 -32t-36 -87q0 -57 36 -88t97 -31t98 31t37 88zM1370 217q0 -127 51 -217h-247q-43 74 -44 158v2 q-72 -88 -198.5 -144.5t-290.5 -56.5q-98 0 -191.5 20.5t-179.5 64.5t-139 124t-53 184.5t53 183t139 122.5t180.5 64.5t190.5 20.5q164 0 291 -56t198 -144v82q0 350 -436 350q-233 0 -426 -113l-86 162q104 63 255 101t302 38q297 0 464 -139t167 -399v-408zM1135 334v35 q-117 203 -449 202q-88 0 -165 -15t-142.5 -67.5t-65.5 -136.5q0 -66 36 -111.5t95.5 -68t119 -32t122.5 -9.5q143 0 264.5 48.5t184.5 154.5z" glyph-name="aringacute" horiz-adv-x="1542" unicode="ǻ"/><glyph d="M2392 1915l-463 -318h-200l319 318h344zM1585 215h1184v-215h-1430v340h-774l-293 -340h-292l1251 1434h141h1376v-215h-1163v-383h979v-215h-979v-406zM737 539h602v698z" glyph-name="AEacute" horiz-adv-x="2873" unicode="Ǽ"/><glyph d="M1722 1604l-462 -318h-201l319 318h344zM1362 510v-72q63 -289 475 -288q156 0 260.5 34.5t200.5 118.5l137 -145q-227 -201 -610 -201q-426 0 -604 258q-78 -123 -240 -189.5t-338 -66.5q-98 0 -192.5 20.5t-180.5 64.5t-139 124t-53 184.5t53 183t139 122.5t180.5 64.5 t190.5 20.5q166 0 293 -59t196 -156v97q0 352 -436 352q-244 0 -436 -117l-72 170q231 133 553 133q365 0 523 -205q178 207 546 207q305 0 485.5 -157.5t180.5 -444.5q0 -29 -4 -53h-1108zM1810 975q-387 0 -448 -293h881q-64 293 -433 293zM1135 334v35q-119 205 -449 204 q-63 0 -122.5 -10t-119 -32.5t-95.5 -68.5t-36 -110q0 -66 36 -111.5t95.5 -68t119 -33t122.5 -10.5q141 0 263.5 49.5t185.5 155.5z" glyph-name="aeacute" horiz-adv-x="2568" unicode="ǽ"/><glyph d="M1475 1915l-463 -318h-201l319 318h345zM1581 1333q317 -205 317 -616q0 -354 -238.5 -557t-651.5 -203q-233 0 -414 66l-162 -213h-219l221 292q-317 201 -317 615q0 354 238.5 557t652.5 203q233 0 413 -66l160 213h221zM367 717q0 -283 208 -428l703 934 q-119 37 -270 37q-295 0 -468 -142.5t-173 -400.5zM1008 174q295 0 467 142.5t172 400.5q0 285 -207 428l-705 -934q121 -37 273 -37z" glyph-name="Oslashacute" horiz-adv-x="2015" unicode="Ǿ"/><glyph d="M1266 1604l-463 -318h-201l320 318h344zM1217 1071q285 -158 284 -512q0 -279 -186.5 -440.5t-511.5 -161.5q-145 0 -273 35l-116 -182h-185l156 243q-281 156 -281 506q0 281 186.5 443.5t512.5 162.5q145 0 268 -35l117 183h184zM340 559q0 -217 162 -323l452 712 q-76 16 -151 17q-207 0 -335 -104.5t-128 -301.5zM803 158q209 0 337 103.5t128 297.5q0 223 -166 330l-455 -715q64 -16 156 -16z" glyph-name="oslashacute" horiz-adv-x="1607" unicode="ǿ"/><glyph d="M934 848q180 -14 309 -40t235.5 -73t160 -125t53.5 -186q0 -209 -200 -338t-556 -129q-518 0 -856 291l153 174q281 -252 713 -252q240 0 368 60.5t128 172.5q0 104 -124 148.5t-417 69.5q-164 14 -290 38.5t-240.5 69.5t-176 123t-61.5 182q0 207 210 325t531 118 q229 0 423 -63.5t325 -174.5l-156 -168q-217 188 -587 193q-123 2 -230.5 -17.5t-187.5 -70t-80 -125.5q0 -102 134 -141t419 -62zM922 -115q72 0 116.5 -48t44.5 -122q0 -98 -56 -211.5t-157 -191.5l-63 67q127 129 145 234q-10 -10 -41 -10q-61 0 -102 40t-41 101 q0 59 43 100t111 41z" glyph-name="Scommaaccent" horiz-adv-x="1777" unicode="Ș"/><glyph d="M756 676q598 -43 598 -346q0 -164 -157 -268.5t-443 -104.5q-412 0 -676 231l129 142q217 -186 553 -187q164 0 265 42t101 124q0 80 -97 116t-312 52q-596 43 -596 334q0 164 159.5 259t442.5 95q164 0 317.5 -50t257.5 -128l-124 -156q-186 145 -463 148 q-143 0 -253 -36t-110 -118q0 -78 100.5 -107.5t307.5 -41.5zM735 -115q72 0 117 -48t45 -122q0 -98 -56.5 -211.5t-156.5 -191.5l-63 67q127 129 145 234q-10 -10 -41 -10q-61 0 -102 40t-41 101q0 59 42.5 100t110.5 41z" glyph-name="scommaaccent" horiz-adv-x="1433" unicode="ș"/><glyph d="M997 63q-156 -104 -346 -104q-172 0 -282.5 91t-110.5 259v623h-217v190h217v260h240v-260h489v-190h-489v-584q0 -90 60 -138t153 -48q100 0 223 67zM594 -115q72 0 117 -48t45 -122q0 -98 -56.5 -211.5t-156.5 -191.5l-64 67q127 129 146 234q-10 -10 -41 -10 q-61 0 -102.5 40t-41.5 101q0 59 43 100t111 41z" glyph-name="uni021B" horiz-adv-x="1034" unicode="ț"/><glyph d="M186 1122h240v-1210q0 -168 -98.5 -265.5t-261.5 -97.5q-117 0 -222 43l56 177q49 -25 114 -25q80 0 126 51t46 137v1190z" glyph-name="uni0237" horiz-adv-x="614" unicode="ȷ"/><glyph d="M145 1597l318 318h256l315 -318h-241l-205 203l-201 -203h-242z" glyph-name="circumflex" horiz-adv-x="1181" unicode="ˆ"/><glyph d="M145 1915h242l203 -203l203 203h241l-315 -318h-256z" glyph-name="caron" horiz-adv-x="1181" unicode="ˇ"/><glyph d="M985 1915q0 -49 -19.5 -102.5t-59.5 -106.5t-115.5 -87t-176 -34t-176.5 34t-115.5 87t-59 106.5t-19.5 102.5h172q4 -70 57 -121t141 -51t141.5 52t57.5 120h172z" glyph-name="breve" horiz-adv-x="1181" unicode="˘"/><glyph d="M592 1616q-57 0 -92 29.5t-35 76.5q0 51 35 81t92 30q55 0 89 -29.5t34 -81.5q0 -47 -34 -76.5t-89 -29.5z" glyph-name="dotaccent" horiz-adv-x="1181" unicode="˙"/><glyph d="M616.5 1581q-124.5 0 -204.5 59.5t-80 168t80 169t204.5 60.5t205.5 -60.5t81 -169t-81 -168t-205.5 -59.5zM485 1808q0 -57 36 -87.5t97.5 -30.5t98.5 30.5t37 87.5q0 55 -37 87t-98.5 32t-97.5 -32t-36 -87z" glyph-name="ring" horiz-adv-x="1181" unicode="˚"/><glyph d="M772 -414q-92 -92 -246 -92q-119 0 -203.5 55.5t-84.5 164t82.5 192.5t218.5 110l123 -16q-102 -37 -172 -110.5t-70 -157.5q0 -63 43 -97t108 -34q84 0 152 51z" glyph-name="ogonek" horiz-adv-x="1189" unicode="˛"/><glyph d="M1010 1909l125 -123q-45 -68 -127 -117t-191 -49q-92 0 -223 57.5t-207 57.5q-72 0 -116 -26t-83 -75l-122 121q45 68 126.5 118t190.5 50q92 0 223 -57.5t209 -57.5q117 1 195 101z" glyph-name="tilde" horiz-adv-x="1200" unicode="˜"/><glyph d="M664 1915l-338 -318h-230l336 318h232zM1094 1915l-336 -318h-232l336 318h232z" glyph-name="hungarumlaut" horiz-adv-x="1187" unicode="˝"/><glyph d="M-657 -115q72 0 116.5 -48t44.5 -122q0 -96 -56 -209.5t-157 -191.5l-61 65q125 131 143 234q-10 -10 -39 -10q-61 0 -103 41t-42 102q0 59 44 99t110 40z" glyph-name="uni0326" horiz-adv-x="0" unicode="̦"/><glyph d="M901 1473l883 -1473h-238h-1325h-203zM360 182h1080l-539 928z" glyph-name="Delta" horiz-adv-x="1802" unicode="Δ"/><glyph d="M1915 760q0 -180 -84 -323.5t-236 -233.5h271v-203h-639v203q436 117 436 516q0 260 -171 401.5t-470 141.5q-295 0 -467 -142.5t-172 -400.5q0 -395 436 -516v-203h-639v203h271q-152 90 -236 233.5t-84 323.5q0 326 240.5 521.5t650.5 195.5q412 0 652.5 -195.5 t240.5 -521.5z" glyph-name="Omega" horiz-adv-x="2045" unicode="Ω"/><glyph d="M1200 1122h238v-1122h-238v221q-76 -119 -207 -185.5t-292.5 -66.5t-276.5 70v-449h-240v1532h240v-624q0 -166 84 -253t248 -87q299 0 444 276v688z" glyph-name="mu" horiz-adv-x="1622" unicode="μ"/><glyph d="M1858 924h-388v-582q0 -88 46.5 -138t136.5 -50q55 0 104 20l47 -170q-90 -45 -209 -45q-150 0 -252 90t-102 250v625h-590v-924h-229v924h-385v198h614h819h388v-198z" glyph-name="pi" horiz-adv-x="1931" unicode="π"/><glyph d="M782 1915h344l320 -318h-201zM2193 1434h256l-524 -1434h-254l-422 1157l-424 -1157h-252l-526 1434h262l396 -1147l425 1147h242l424 -1147z" glyph-name="Wgrave" horiz-adv-x="2496" unicode="Ẁ"/><glyph d="M565 1604h344l320 -318h-201zM1772 1122h235l-414 -1122h-237l-324 879l-327 -879h-240l-414 1122h242l307 -864l320 864h225l319 -864z" glyph-name="wgrave" horiz-adv-x="2060" unicode="ẁ"/><glyph d="M1718 1915l-463 -318h-200l319 318h344zM2193 1434h256l-524 -1434h-254l-422 1157l-424 -1157h-252l-526 1434h262l396 -1147l425 1147h242l424 -1147z" glyph-name="Wacute" horiz-adv-x="2496" unicode="Ẃ"/><glyph d="M1499 1604l-463 -318h-200l319 318h344zM1772 1122h235l-414 -1122h-237l-324 879l-327 -879h-240l-414 1122h242l307 -864l320 864h225l319 -864z" glyph-name="wacute" horiz-adv-x="2060" unicode="ẃ"/><glyph d="M979 1616q-59 0 -97 33.5t-38 83.5q0 51 38 84.5t97 33.5q57 0 94 -33.5t37 -84.5q0 -49 -38 -83t-93 -34zM1524 1616q-57 0 -96 33.5t-39 83.5q0 51 38.5 84.5t96 33.5t94.5 -33.5t37 -84.5q0 -49 -38 -83t-93 -34zM2193 1434h256l-524 -1434h-254l-422 1157l-424 -1157 h-252l-526 1434h262l396 -1147l425 1147h242l424 -1147z" glyph-name="Wdieresis" horiz-adv-x="2496" unicode="Ẅ"/><glyph d="M762 1305q-59 0 -97 33.5t-38 82.5q0 51 37.5 85t97.5 34q57 0 94 -33.5t37 -85.5q0 -49 -38 -82.5t-93 -33.5zM1307 1305q-57 0 -96.5 33.5t-39.5 82.5q0 51 39 85t96.5 34t94.5 -33.5t37 -85.5q0 -49 -38 -82.5t-93 -33.5zM1772 1122h235l-414 -1122h-237l-324 879 l-327 -879h-240l-414 1122h242l307 -864l320 864h225l319 -864z" glyph-name="wdieresis" horiz-adv-x="2060" unicode="ẅ"/><glyph d="M385 1915h344l320 -318h-201zM23 1434h284l547 -727l543 727h282l-704 -938v-496h-246v496z" glyph-name="Ygrave" horiz-adv-x="1701" unicode="Ỳ"/><glyph d="M268 1604h344l320 -318h-201zM1182 1122h252l-848 -1532h-250l280 484l-585 1048h258l450 -819z" glyph-name="ygrave" horiz-adv-x="1466" unicode="ỳ"/><glyph d="M1464 514h-1304v203h1304v-203z" glyph-name="endash" horiz-adv-x="1626" unicode="–"/><glyph d="M1903 514h-1743v203h1743v-203z" glyph-name="emdash" horiz-adv-x="2064" unicode="—"/><glyph d="M293 946q-72 0 -117 48t-45 122q0 98 56.5 212t156.5 192l64 -68q-127 -129 -146 -233q10 10 41 10q61 0 102 -40t41 -102q0 -59 -42.5 -100t-110.5 -41z" glyph-name="quoteleft" horiz-adv-x="573" unicode="‘"/><glyph d="M287 1473q72 0 117 -48.5t45 -121.5q0 -98 -56.5 -212t-156.5 -192l-64 68q127 129 145 233q-10 -10 -41 -10q-61 0 -102 40t-41 101q0 59 43 100.5t111 41.5z" glyph-name="quoteright" horiz-adv-x="573" unicode="’"/><glyph d="M287 260q72 0 117 -48t45 -122q0 -98 -56.5 -212t-156.5 -191l-64 67q127 129 145 234q-10 -10 -41 -11q-61 0 -102 40t-41 102q0 59 43 100t111 41z" glyph-name="quotesinglbase" horiz-adv-x="573" unicode="‚"/><glyph d="M293 940q-72 0 -117 48t-45 122q0 98 56.5 212t156.5 191l64 -67q-127 -129 -146 -234q10 10 41 11q61 0 102 -40t41 -102q0 -59 -42.5 -100t-110.5 -41zM670 942q-74 0 -118 47t-44 121q0 98 56.5 212t154.5 191l63 -67q-123 -123 -145 -234q10 10 41 11q61 0 103 -40 t42 -102q0 -59 -43.5 -99t-109.5 -40z" glyph-name="quotedblleft" horiz-adv-x="948" unicode="“"/><glyph d="M287 1473q72 0 117 -47.5t45 -120.5q0 -98 -56.5 -212t-156.5 -192l-64 68q127 127 145 231q-8 -8 -41 -8q-61 0 -102 40t-41 101q0 59 43 99.5t111 40.5zM662 1473q72 0 116.5 -48.5t44.5 -121.5q0 -98 -56 -212t-157 -192l-63 68q127 129 145 233q-10 -10 -41 -10 q-61 0 -102 40t-41 101q0 59 43 100.5t111 41.5z" glyph-name="quotedblright" horiz-adv-x="948" unicode="”"/><glyph d="M662 260q72 0 116.5 -48t44.5 -122q0 -98 -56 -212t-157 -191l-63 67q127 129 145 234q-10 -10 -41 -11q-61 0 -102 40t-41 102q0 59 43 100t111 41zM287 260q72 0 117 -48t45 -122q0 -98 -56.5 -212t-156.5 -191l-64 67q127 129 145 234q-10 -10 -41 -11q-61 0 -102 40 t-41 102q0 59 43 100t111 41z" glyph-name="quotedblbase" horiz-adv-x="948" unicode="„"/><glyph d="M756 1270v-148h-232v-426h-162v426h-227v148h227v246h162v-246h232z" glyph-name="dagger" horiz-adv-x="892" unicode="†"/><glyph d="M756 1190h-234v-168h234v-131h-234v-195h-157v195h-230v131h230v168h-230v131h230v195h157v-195h234v-131z" glyph-name="daggerdbl" horiz-adv-x="892" unicode="‡"/><glyph d="M399.5 352q-102.5 0 -171 63.5t-68.5 157.5q0 98 68.5 162t171 64t169 -63.5t66.5 -162.5q0 -94 -66.5 -157.5t-169 -63.5z" glyph-name="bullet" horiz-adv-x="796" unicode="•"/><glyph d="M825.5 -23q-69.5 0 -112.5 40t-43 100q0 61 44 102t111.5 41t111.5 -41t44 -102q0 -59 -43 -99.5t-112.5 -40.5zM1370 -23q-70 0 -114 40t-44 100q0 61 45.5 102t113 41t111.5 -41t44 -102q0 -59 -44 -99.5t-112 -40.5zM281 -23q-68 0 -112 40t-44 100q0 61 44 102 t111.5 41t112.5 -41t45 -102q0 -59 -43.5 -99.5t-113.5 -40.5z" glyph-name="ellipsis" horiz-adv-x="1650" unicode="…"/><glyph d="M450.5 797q-161.5 0 -266 95t-104.5 236.5t104.5 236.5t266 95t265 -95t103.5 -236.5t-103.5 -236.5t-265 -95zM1399 1434h194l-1112 -1434h-194zM450.5 944q92.5 0 149.5 48t57 136.5t-57 137.5t-149.5 49t-149.5 -49t-57 -137.5t57 -136.5t149.5 -48zM1430 -27 q-164 0 -267.5 95.5t-103.5 236.5t103.5 236.5t267.5 95.5q162 0 265 -95.5t103 -236.5t-103 -236.5t-265 -95.5zM2257 -27q-162 0 -266.5 95.5t-104.5 236.5t104.5 236.5t266.5 95.5t265.5 -95.5t103.5 -236.5t-103.5 -236.5t-265.5 -95.5zM1429.5 119q92.5 0 148.5 49 t56 137t-56 136t-148.5 48t-149.5 -48t-57 -136t57 -137t149.5 -49zM2257 119q92 0 149.5 49t57.5 137t-57.5 136t-149.5 48t-149.5 -48t-57.5 -136t57.5 -137t149.5 -49z" glyph-name="perthousand" horiz-adv-x="2707" unicode="‰"/><glyph d="M309 1434h217l-198 -557h-215z" glyph-name="minute" horiz-adv-x="604" unicode="′"/><glyph d="M309 1434h217l-198 -557h-215zM715 1434h217l-199 -557h-217z" glyph-name="second" horiz-adv-x="1007" unicode="″"/><glyph d="M514 1059h246l-434 -445l434 -442h-246l-432 442z" glyph-name="guilsinglleft" horiz-adv-x="870" unicode="‹"/><glyph d="M356 1059l432 -445l-432 -442h-245l432 442l-432 445h245z" glyph-name="guilsinglright" horiz-adv-x="870" unicode="›"/><glyph d="M784 1475q166 0 309.5 -44.5t241 -142.5t97.5 -231q0 -176 -159 -277.5t-421 -120.5v-227h-203v377v383h203v-361q330 53 330 224q0 113 -117 166t-287 53q-356 0 -553 -258l-157 133q119 150 301 238t415 88zM749.5 260q67.5 0 112.5 -41t45 -102q0 -59 -44 -99.5 t-113 -40.5q-68 0 -112 40t-44 100q0 61 44 102t111.5 41z" glyph-name="uni203D" horiz-adv-x="1525" unicode="‽"/><glyph d="M-137 0h-178l909 1434h178z" glyph-name="fraction" horiz-adv-x="462" unicode="⁄"/><glyph d="M561 928q-225 0 -353 118.5t-128 327.5q0 207 129 327t352 120q225 0 353 -120t128 -327q0 -209 -128 -327.5t-353 -118.5zM561.5 1067q149.5 0 234.5 80t85 227.5t-86 227t-234 79.5q-150 0 -234.5 -79.5t-84.5 -227t85 -227.5t234.5 -80z" glyph-name="uni2070" horiz-adv-x="1120" unicode="⁰"/><glyph d="M977 1274v-127h-164v-195h-154v195h-618v94l631 553h141v-520h164zM248 1274h409v346z" glyph-name="uni2074" horiz-adv-x="1030" unicode="⁴"/><glyph d="M152 1196q141 -135 344 -135q121 0 193.5 42t72.5 117.5t-70.5 113.5t-191.5 38q-156 0 -293 -67l-115 47l78 442h672v-129h-553l-43 -248q129 78 303 78q162 0 268.5 -70.5t106.5 -203.5q0 -129 -107.5 -211t-306.5 -82q-264 0 -451 170z" glyph-name="uni2075" horiz-adv-x="985" unicode="⁵"/><glyph d="M584 1499q170 0 283.5 -69.5t113.5 -210.5q0 -129 -113.5 -210t-310.5 -81q-223 0 -351 119.5t-128 326.5t128 327t351 120q262 0 395 -146l-96 -90q-109 111 -285 111q-152 0 -241.5 -79t-89.5 -243v-22q55 72 149.5 109.5t194.5 37.5zM557 1055q119 0 190.5 42 t71.5 117q0 164 -262 164q-193 0 -303 -127q57 -196 303 -196z" glyph-name="uni2076" horiz-adv-x="1048" unicode="⁶"/><glyph d="M229 952l441 707h-631v135h823v-106l-452 -736h-181z" glyph-name="uni2077" horiz-adv-x="897" unicode="⁷"/><glyph d="M725 1401q248 -37 248 -221q0 -113 -125 -182.5t-323.5 -69.5t-322.5 69.5t-124 182.5q0 184 244 221q-94 6 -153.5 59t-59.5 137q0 106 119.5 165t295.5 59t297 -58.5t121 -165.5q0 -84 -60.5 -137t-156.5 -59zM268 1577q0 -125 258 -125q254 0 254 125q0 61 -72.5 93 t-181.5 32q-111 0 -184.5 -32t-73.5 -93zM522 1047q125 0 205 39.5t80 109.5q0 147 -285 147q-281 0 -280 -147q0 -70 78.5 -109.5t201.5 -39.5z" glyph-name="uni2078" horiz-adv-x="1048" unicode="⁸"/><glyph d="M481 1819q223 0 351.5 -120t128.5 -327t-128 -326.5t-352 -119.5q-262 0 -395 145l96 90q109 -111 285 -110q152 0 242 78.5t90 242.5v23q-55 -72 -149.5 -110t-194.5 -38q-170 0 -284 69.5t-114 211.5q0 129 113.5 210t310.5 81zM481 1368q193 0 303 127 q-57 197 -303 197q-119 0 -190.5 -42t-71.5 -118q0 -164 262 -164z" glyph-name="uni2079" horiz-adv-x="1048" unicode="⁹"/><glyph d="M1733 1434v-162h-361q92 -92 113 -219h248v-164h-250q-27 -143 -132.5 -237.5t-271.5 -129.5l457 -522h-262l-432 504h-692v164h729q342 0 393 221h-1122v164h1122q-53 219 -393 219h-729v162h1583z" glyph-name="uni20A8" horiz-adv-x="1828" unicode="₨"/><glyph d="M1075 158q326 0 484 256l194 -107q-94 -156 -266 -254t-408 -98q-313 0 -516 148.5t-258 414.5h-217v121h201q-4 49 -4 77.5t4 78.5h-201v120h217q55 266 258 415t516 149q236 0 408 -98.5t266 -254.5l-194 -106q-158 256 -484 256q-209 0 -345 -92t-185 -269h788v-120 h-809q-4 -49 -4 -78t4 -78h809v-121h-788q49 -176 185 -268t345 -92z" glyph-name="Euro" horiz-adv-x="1853" unicode="€"/><glyph d="M725 133q143 0 221 135l133 -100q-51 -102 -150.5 -155.5t-217.5 -53.5q-160 0 -274.5 96.5t-114.5 294.5v19q-104 -45 -209 -84l-50 139q221 92 259 108v633q0 197 115.5 294t273.5 97q156 0 271.5 -97t115.5 -298q0 -401 -439 -637q-49 -27 -141 -69v-93 q0 -123 58.5 -176t148.5 -53zM518 1153v-530q51 25 117 59q264 162 264 471q0 229 -188 229q-193 0 -193 -229z" glyph-name="afii61289" horiz-adv-x="1189" unicode="ℓ"/><glyph d="M1003.5 -43q-409.5 0 -648 207t-238.5 553t238.5 553t648 207t648 -207t238.5 -553t-238.5 -553t-648 -207zM1003.5 33q366.5 0 584.5 181t218 502.5t-218 503t-584.5 181.5t-585.5 -181.5t-219 -503t219 -502.5t585.5 -181zM1180 1206q193 0 311.5 -84t118.5 -241.5 t-119 -241.5t-311 -84h-459v-324h-195v975h654zM1161 700q254 0 254 178.5t-254 178.5h-440v-357h440z" glyph-name="uni2117" horiz-adv-x="2007" unicode="℗"/><glyph d="M819 1434v-125h-295v-576h-145v576h-297v125h737zM1665 1434h143v-701h-139v506l-303 -387h-6l-301 387v-506h-137v701h147l295 -392z" glyph-name="trademark" horiz-adv-x="1990" unicode="™"/><glyph d="M535 664v-474q174 -102 432 -102q432 0 663 281l101 -99q-274 -315 -764 -315q-389 0 -619.5 205t-230.5 557t230.5 557t619.5 205q387 0 614 -216t236 -599h-1282zM1395 1235q-176 113 -428 113q-260 0 -432 -105v-455h860v447z" glyph-name="estimated" horiz-adv-x="1908" unicode="℮"/><glyph d="M291 592v657q-84 -70 -244 -94v135q154 20 283 144h121v-842h-160zM518 0h-176l905 1434h178zM1855 449q106 -16 176 -69.5t70 -152.5q0 -113 -124 -182.5t-322.5 -69.5t-323.5 70t-125 182q0 98 70 151.5t174 70.5q-92 6 -152.5 60t-60.5 136q0 106 120 164.5t298 58.5 q174 0 295 -58t121 -165q0 -84 -61 -137t-155 -59zM1397 625q0 -125 258 -125q254 0 254 125q0 61 -73 93t-181.5 32t-183 -32t-74.5 -93zM1653 94q123 0 202.5 40t79.5 110q0 147 -282.5 147t-282.5 -147q0 -70 79 -110t204 -40z" glyph-name="oneeighth" horiz-adv-x="2177" unicode="⅛"/><glyph d="M176 840q102 -143 311 -144q109 0 185 38t76 110q0 131 -271 131h-115v119h115q242 0 242 116q0 63 -69.5 92t-170.5 29q-184 0 -284 -127l-111 72q51 84 162.5 134t247.5 50q160 0 274.5 -59.5t114.5 -167.5q0 -80 -59.5 -133t-145.5 -62q98 -14 167.5 -66t69.5 -145 q0 -121 -118.5 -190.5t-302.5 -69.5q-143 0 -259 56.5t-178 150.5zM881 0h-179l908 1434h178zM2204 449q248 -37 247 -222q0 -113 -124.5 -182.5t-323.5 -69.5t-323 70t-124 182q0 184 244 222q-94 6 -153.5 59t-59.5 137q0 106 120 164.5t296 58.5t297 -58t121 -165 q0 -84 -60.5 -137t-156.5 -59zM1747 625q0 -125 258 -125q254 0 254 125q0 61 -72.5 93t-181.5 32q-111 0 -184.5 -32t-73.5 -93zM2001 94q125 0 205 40t80 110q0 147 -285 147q-281 0 -281 -147q0 -70 79 -110t202 -40z" glyph-name="threeeighths" horiz-adv-x="2527" unicode="⅜"/><glyph d="M152 836q141 -135 344 -136q121 0 193.5 42t72.5 118t-72 115t-190 39q-152 0 -293 -70l-115 47l78 443h672v-129h-553l-43 -248q129 78 303 78q162 0 268.5 -71t106.5 -204q0 -129 -107.5 -211t-306.5 -82q-264 0 -451 170zM862 0h-178l905 1434h180zM2185 449 q246 -37 246 -222q0 -113 -124 -182.5t-322.5 -69.5t-322.5 70t-124 182q0 184 244 222q-94 6 -153.5 59t-59.5 137q0 106 119.5 164.5t296 58.5t296 -58t119.5 -165q0 -84 -60.5 -137t-154.5 -59zM1729 625q0 -125 258 -125q254 0 254 125q0 61 -73 93t-181 32 q-111 0 -184.5 -32t-73.5 -93zM1982 94q125 0 205 40t80 110q0 147 -285 147q-283 0 -282 -147q0 -70 79.5 -110t202.5 -40z" glyph-name="fiveeighths" horiz-adv-x="2508" unicode="⅝"/><glyph d="M229 592l441 706h-631v136h823v-107l-452 -735h-181zM592 0h-178l905 1434h180zM1915 449q246 -37 246 -222q0 -113 -124 -182.5t-322.5 -69.5t-322.5 70t-124 182q0 184 243 222q-94 6 -153.5 59t-59.5 137q0 106 120 164.5t296 58.5t296 -58t120 -165q0 -84 -60.5 -137 t-154.5 -59zM1458 625q0 -125 258 -125q254 0 254 125q0 61 -72.5 93t-181.5 32q-111 0 -184.5 -32t-73.5 -93zM1712 94q125 0 205 40t80 110q0 147 -285 147q-283 0 -282 -147q0 -70 79.5 -110t202.5 -40z" glyph-name="seveneighths" horiz-adv-x="2238" unicode="⅞"/><glyph d="M1763 831v-215h-1235l488 -475l-135 -133l-715 717l715 715l135 -135l-488 -474h1235z" glyph-name="arrowleft" horiz-adv-x="1978" unicode="←"/><glyph d="M1706 801l-135 -133l-475 487v-1237h-215v1235l-473 -485l-134 133l715 715z" glyph-name="arrowup" horiz-adv-x="1978" unicode="↑"/><glyph d="M1098 1440l714 -715l-714 -717l-135 133l487 475h-1235v215h1235l-487 474z" glyph-name="arrowright" horiz-adv-x="1978" unicode="→"/><glyph d="M1571 766l135 -133l-717 -715l-715 715l134 133l473 -487v1237h215v-1240z" glyph-name="arrowdown" horiz-adv-x="1978" unicode="↓"/><glyph d="M1645 248l-146 -144l-872 873v-682h-187v1012h1012v-185h-682z" glyph-name="uni2196" horiz-adv-x="1980" unicode="↖"/><glyph d="M526 1307h1012v-1012h-184v682l-875 -873l-145 144l876 874h-684v185z" glyph-name="uni2197" horiz-adv-x="1980" unicode="↗"/><glyph d="M1354 1145h184v-1012h-1012v184h684l-876 875l145 143l875 -872v682z" glyph-name="uni2198" horiz-adv-x="1980" unicode="↘"/><glyph d="M1645 1192l-875 -875h682v-184h-1012v1012h187v-682l872 872z" glyph-name="uni2199" horiz-adv-x="1980" unicode="↙"/><glyph d="M1503 625q0 -670 -698 -670q-324 0 -512.5 154.5t-188.5 427.5q0 262 178.5 413.5t434.5 151.5q430 0 553 -271q-59 197 -278.5 335.5t-575.5 183.5l35 194q281 -39 488.5 -127t328.5 -213t178 -269t57 -310zM803 150q209 0 339 98t130 289q0 188 -130 286.5t-339 98.5 t-338 -98.5t-129 -286.5q0 -190 129 -288.5t338 -98.5z" glyph-name="partialdiff" horiz-adv-x="1609" unicode="∂"/><glyph d="M1483 1282l-158 -158q145 -152 145 -395q0 -270 -176 -426t-487 -156q-217 0 -373 80l-188 -190l-117 110l174 172q-160 154 -160 410q0 270 176.5 426t487.5 156q236 0 391 -90l168 170zM373 729q0 -162 82 -256l331 328l263 268q-94 47 -242 47q-207 0 -320.5 -99.5 t-113.5 -287.5zM1241 729q0 147 -72 242l-278 -277l-305 -313q92 -37 221 -37q207 0 320.5 98.5t113.5 286.5z" glyph-name="emptyset" horiz-adv-x="1613" unicode="∅"/><glyph d="M1528 1434v-1680h-225v1477h-863v-1477h-223v1680h1311z" glyph-name="product" horiz-adv-x="1744" unicode="∏"/><glyph d="M1346 1241h-916l680 -577v-117l-686 -600h928v-193h-1266v164l784 686l-778 666v164h1254v-193z" glyph-name="summation" horiz-adv-x="1454" unicode="∑"/><glyph d="M1346 516h-1180v199h1180v-199z" glyph-name="minus" horiz-adv-x="1511" unicode="−"/><glyph d="M1290 1434h228l-678 -1680h-195l-377 840h-223v188h279h90l321 -735z" glyph-name="radical" horiz-adv-x="1525" unicode="√"/><glyph d="M1534 1020q199 0 328 -116t129 -304t-129 -304t-328 -116q-152 0 -262.5 72t-212.5 201q-104 -129 -215 -201t-264 -72q-199 0 -328 116t-129 304t129 304t328 116q154 0 264 -71.5t215 -200.5q102 129 212.5 200.5t262.5 71.5zM584 354q106 0 187 62.5t173 183.5 q-92 121 -173 183.5t-187 62.5q-115 0 -192 -66.5t-77 -179.5t77 -179.5t192 -66.5zM1530 354q115 0 191.5 66.5t76.5 179.5t-76.5 179.5t-191.5 66.5q-106 0 -185 -62.5t-174 -183.5q94 -121 173.5 -183.5t185.5 -62.5z" glyph-name="infinity" horiz-adv-x="2115" unicode="∞"/><glyph d="M672 1556q102 0 180 -30l-35 -162q-41 10 -72 10q-90 0 -144 -48t-54 -138v-993v-183q0 -158 -102.5 -249t-254.5 -91q-102 0 -180 31l35 162q45 -10 74 -10q88 0 142 48t54 140v991v183q0 158 102.5 248.5t254.5 90.5z" glyph-name="integral" horiz-adv-x="864" unicode="∫"/><glyph d="M1231 1006l125 -138q-47 -68 -134 -115.5t-200 -47.5q-96 0 -264 57t-260 57q-137 0 -215 -102l-123 135q49 68 135 117t197 49q96 0 264 -57.5t262 -57.5q139 1 213 103zM1231 514l125 -135q-47 -68 -134 -116t-200 -48q-96 0 -264 57.5t-260 57.5q-137 0 -215 -103 l-123 133q49 68 135 117t197 49q96 0 264 -57t262 -57q137 0 213 102z" glyph-name="approxequal" horiz-adv-x="1511" unicode="≈"/><glyph d="M1346 774h-422l-152 -297h574v-201h-676l-121 -233h-189l119 233h-313v201h418l151 297h-569v201h674l118 233h189l-119 -233h318v-201z" glyph-name="notequal" horiz-adv-x="1511" unicode="≠"/><glyph d="M1286 1294v-188l-856 -297l856 -301v-189l-1087 396v186zM199 37v172h1087v-172h-1087z" glyph-name="lessequal" horiz-adv-x="1511" unicode="≤"/><glyph d="M225 1294l1088 -393v-186l-1088 -396v189l856 301l-856 297v188zM1313 37h-1088v172h1088v-172z" glyph-name="greaterequal" horiz-adv-x="1511" unicode="≥"/><glyph d="M893 1434l567 -705l-567 -729h-256l-565 729l565 705h256zM766 164l440 565l-440 545l-442 -545z" glyph-name="lozenge" horiz-adv-x="1529" unicode="◊"/><glyph d="M707 213q156 -53 333 -53q379 0 379 254q0 256 -375 256h-239v174h174q362 0 362 225q0 223 -395 223q-244 0 -377 -117.5t-133 -320.5v-854h-246v831q0 287 200 466.5t554 179.5q272 0 458.5 -100.5t186.5 -284.5q0 -127 -88 -213t-246 -107q184 -14 300 -108.5 t116 -268.5q0 -193 -156.5 -308.5t-414.5 -115.5q-225 0 -434 66z" glyph-name="germandbls.case" horiz-adv-x="1773"/><glyph d="M713 1163q174 0 306 -65.5t210 -175.5v200h239v-1122h-239v199q-78 -109 -211 -174.5t-305 -65.5q-274 0 -441.5 164t-167.5 436t167.5 438t441.5 166zM772 162q305 0 455 231v336q-147 229 -455 229q-209 0 -321.5 -103t-112.5 -296q0 -190 113.5 -293.5t320.5 -103.5z " glyph-name="a.salt" horiz-adv-x="1652"/><glyph d="M1305 1604l-463 -318h-201l320 318h344zM713 1163q174 0 306 -65.5t210 -175.5v200h239v-1122h-239v199q-78 -109 -211 -174.5t-305 -65.5q-274 0 -441.5 164t-167.5 436t167.5 438t441.5 166zM772 162q305 0 455 231v336q-147 229 -455 229q-209 0 -321.5 -103 t-112.5 -296q0 -190 113.5 -293.5t320.5 -103.5z" glyph-name="aacute.salt" horiz-adv-x="1652"/><glyph d="M1208 1604q0 -49 -19.5 -102.5t-59 -107t-115.5 -87t-176.5 -33.5t-176 33.5t-115.5 87t-59.5 106.5t-19.5 103h172q4 -70 57.5 -121t141.5 -51t141 52t57 120h172zM713 1163q174 0 306 -65.5t210 -175.5v200h239v-1122h-239v199q-78 -109 -211 -174.5t-305 -65.5 q-274 0 -441.5 164t-167.5 436t167.5 438t441.5 166zM772 162q305 0 455 231v336q-147 229 -455 229q-209 0 -321.5 -103t-112.5 -296q0 -190 113.5 -293.5t320.5 -103.5z" glyph-name="abreve.salt" horiz-adv-x="1652"/><glyph d="M391 1286l318 318h256l315 -318h-242l-204 203l-201 -203h-242zM713 1163q174 0 306 -65.5t210 -175.5v200h239v-1122h-239v199q-78 -109 -211 -174.5t-305 -65.5q-274 0 -441.5 164t-167.5 436t167.5 438t441.5 166zM772 162q305 0 455 231v336q-147 229 -455 229 q-209 0 -321.5 -103t-112.5 -296q0 -190 113.5 -293.5t320.5 -103.5z" glyph-name="acircumflex.salt" horiz-adv-x="1652"/><glyph d="M565 1305q-59 0 -97 33.5t-38 82.5q0 51 38 85t97 34q57 0 94 -33.5t37 -85.5q0 -49 -38 -82.5t-93 -33.5zM1110 1305q-57 0 -96 33.5t-39 82.5q0 51 39 85t96 34t94 -33.5t37 -85.5q0 -49 -38 -82.5t-93 -33.5zM713 1163q174 0 306 -65.5t210 -175.5v200h239v-1122h-239 v199q-78 -109 -211 -174.5t-305 -65.5q-274 0 -441.5 164t-167.5 436t167.5 438t441.5 166zM772 162q305 0 455 231v336q-147 229 -455 229q-209 0 -321.5 -103t-112.5 -296q0 -190 113.5 -293.5t320.5 -103.5z" glyph-name="adieresis.salt" horiz-adv-x="1652"/><glyph d="M369 1604h344l319 -318h-201zM713 1163q174 0 306 -65.5t210 -175.5v200h239v-1122h-239v199q-78 -109 -211 -174.5t-305 -65.5q-274 0 -441.5 164t-167.5 436t167.5 438t441.5 166zM772 162q305 0 455 231v336q-147 229 -455 229q-209 0 -321.5 -103t-112.5 -296 q0 -190 113.5 -293.5t320.5 -103.5z" glyph-name="agrave.salt" horiz-adv-x="1652"/><glyph d="M416 1511h839v-180h-839v180zM713 1163q174 0 306 -65.5t210 -175.5v200h239v-1122h-239v199q-78 -109 -211 -174.5t-305 -65.5q-274 0 -441.5 164t-167.5 436t167.5 438t441.5 166zM772 162q305 0 455 231v336q-147 229 -455 229q-209 0 -321.5 -103t-112.5 -296 q0 -190 113.5 -293.5t320.5 -103.5z" glyph-name="amacron.salt" horiz-adv-x="1652"/><glyph d="M1528 -348l49 -66q-92 -92 -246 -92q-119 0 -204 55.5t-85 163.5q0 96 64.5 173t175.5 114h-53v199q-78 -109 -211 -174.5t-305 -65.5q-274 0 -441.5 164t-167.5 436t167 438t442 166q174 0 306 -65.5t210 -175.5v200h239v-1122h-2q-102 -37 -171.5 -110.5t-69.5 -157.5 q0 -63 43 -97t108 -34q84 0 152 51zM1227 393v336q-147 229 -455 229q-209 0 -321.5 -103t-112.5 -296q0 -190 113.5 -293.5t320.5 -103.5q305 0 455 231z" glyph-name="aogonek.salt" horiz-adv-x="1652"/><glyph d="M836 1270q-125 0 -205 59.5t-80 168t80 168.5t205 60t205.5 -60t80.5 -168.5t-80.5 -168t-205.5 -59.5zM705 1497q0 -57 35.5 -88t97 -31t98.5 31t37 88q0 55 -37 87t-98.5 32t-97 -32t-35.5 -87zM713 1163q174 0 306 -65.5t210 -175.5v200h239v-1122h-239v199 q-78 -109 -211 -174.5t-305 -65.5q-274 0 -441.5 164t-167.5 436t167.5 438t441.5 166zM772 162q305 0 455 231v336q-147 229 -455 229q-209 0 -321.5 -103t-112.5 -296q0 -190 113.5 -293.5t320.5 -103.5z" glyph-name="aring.salt" horiz-adv-x="1652"/><glyph d="M836 1270q-125 0 -205 59.5t-80 167.5q0 94 61 152l250 268h250l-244 -193q113 -8 183.5 -67.5t70.5 -159.5q0 -109 -80.5 -168t-205.5 -59zM973 1497q0 55 -37 87t-98.5 32t-97 -32t-35.5 -87q0 -57 35.5 -88t97 -31t98.5 31t37 88zM1229 1122h239v-1122h-239v199 q-78 -109 -211 -174.5t-305 -65.5q-274 0 -441.5 164t-167.5 436t167 438t442 166q174 0 306 -65.5t210 -175.5v200zM1227 393v336q-147 229 -455 229q-209 0 -321.5 -103t-112.5 -296q0 -190 113.5 -293.5t320.5 -103.5q305 0 455 231z" glyph-name="aringacute.salt" horiz-adv-x="1652"/><glyph d="M1245 1597l125 -122q-45 -68 -127 -117t-190 -49q-92 0 -223.5 57t-206.5 57q-72 0 -116 -25.5t-83 -74.5l-123 121q45 68 127 118t190 50q90 0 221.5 -57.5t211.5 -57.5q116 0 194 100zM713 1163q174 0 306 -65.5t210 -175.5v200h239v-1122h-239v199 q-78 -109 -211 -174.5t-305 -65.5q-274 0 -441.5 164t-167.5 436t167.5 438t441.5 166zM772 162q305 0 455 231v336q-147 229 -455 229q-209 0 -321.5 -103t-112.5 -296q0 -190 113.5 -293.5t320.5 -103.5z" glyph-name="atilde.salt" horiz-adv-x="1652"/><glyph d="M1425 0l-159 291h-815l-160 -291h-264l702 1245h264l699 -1245h-267zM557 483h602l-301 547z" glyph-name="A.c2sc" horiz-adv-x="1718"/><glyph d="M1329 1726l-463 -317h-200l319 317h344zM1425 0l-159 291h-815l-160 -291h-264l702 1245h264l699 -1245h-267zM557 483h602l-301 547z" glyph-name="Aacute.c2sc" horiz-adv-x="1718"/><glyph d="M862.5 1397q-100.5 0 -176.5 33.5t-116 87t-59 106.5t-19 102h172q4 -70 57 -121t141 -51t141.5 52.5t57.5 119.5h172q0 -49 -19.5 -102t-59.5 -106.5t-115.5 -87t-176 -33.5zM1425 0l-159 291h-815l-160 -291h-264l702 1245h264l699 -1245h-267zM557 483h602l-301 547z " glyph-name="Abreve.c2sc" horiz-adv-x="1718"/><glyph d="M858 1612l-201 -203h-241l317 317h256l316 -317h-242zM1425 0l-159 291h-815l-160 -291h-264l702 1245h264l699 -1245h-267zM557 483h602l-301 547z" glyph-name="Acircumflex.c2sc" horiz-adv-x="1718"/><glyph d="M590 1427q-59 0 -97 34t-38 83q0 51 37.5 85t97.5 34q57 0 94 -34t37 -85q0 -49 -38 -83t-93 -34zM1135 1427q-57 0 -96.5 34t-39.5 83q0 51 39 85t96.5 34t94.5 -34t37 -85q0 -49 -38 -83t-93 -34zM1425 0l-159 291h-815l-160 -291h-264l702 1245h264l699 -1245h-267z M557 483h602l-301 547z" glyph-name="Adieresis.c2sc" horiz-adv-x="1718"/><glyph d="M1057 1409h-201l-463 317h344zM1425 0l-159 291h-815l-160 -291h-264l702 1245h264l699 -1245h-267zM557 483h602l-301 547z" glyph-name="Agrave.c2sc" horiz-adv-x="1718"/><glyph d="M1280 1634v-180h-840v180h840zM1425 0l-159 291h-815l-160 -291h-264l702 1245h264l699 -1245h-267zM557 483h602l-301 547z" glyph-name="Amacron.c2sc" horiz-adv-x="1718"/><glyph d="M1753 -348l49 -66q-92 -92 -246 -92q-119 0 -203.5 55.5t-84.5 163.5q0 96 64.5 173t174.5 114h-82l-159 291h-815l-160 -291h-264l702 1245h264l699 -1245q-102 -37 -172 -110.5t-70 -157.5q0 -63 43 -97t109 -34q83 0 151 51zM557 483h602l-301 547z" glyph-name="Aogonek.c2sc" horiz-adv-x="1718"/><glyph d="M860 1393q-125 0 -205 59t-80 168t80 169t205 60t206 -60t81 -169t-81 -168t-206 -59zM862.5 1739q-61.5 0 -97.5 -32t-36 -87q0 -57 36 -88t97.5 -31t98 31t36.5 88q0 55 -36.5 87t-98 32zM1425 0l-159 291h-815l-160 -291h-264l702 1245h264l699 -1245h-267zM557 483 h602l-301 547z" glyph-name="Aring.c2sc" horiz-adv-x="1718"/><glyph d="M860 1393q-125 0 -205 59t-80 168q0 111 84 172l232 248h250l-244 -193q111 -8 180.5 -67.5t69.5 -159.5q0 -109 -81 -168t-206 -59zM997 1620q0 55 -36.5 87t-98 32t-97.5 -32t-36 -87q0 -57 36 -88t97.5 -31t98 31t36.5 88zM1425 0l-159 291h-815l-160 -291h-264 l702 1245h264l699 -1245h-267zM557 483h602l-301 547z" glyph-name="Aringacute.c2sc" horiz-adv-x="1718"/><glyph d="M647 1546q-72 0 -116 -25.5t-82 -74.5l-123 121q45 68 127 118t190 50q90 0 221 -57.5t211 -57.5q117 0 195 100l125 -123q-45 -68 -127 -116.5t-191 -48.5q-92 0 -223 57t-207 57zM1425 0l-159 291h-815l-160 -291h-264l702 1245h264l699 -1245h-267zM557 483h602 l-301 547z" glyph-name="Atilde.c2sc" horiz-adv-x="1718"/><glyph d="M1466 207h1067v-207h-1308v281h-701l-254 -281h-282l1126 1245h141h1258v-205h-1047v-307h867v-203h-867v-323zM700 477h525v582z" glyph-name="ae.aalt" horiz-adv-x="2641"/><glyph d="M2220 1726l-463 -317h-201l320 317h344zM1466 207h1067v-207h-1308v281h-701l-254 -281h-282l1126 1245h141h1258v-205h-1047v-307h867v-203h-867v-323zM700 477h525v582z" glyph-name="aeacute.aalt" horiz-adv-x="2641"/><glyph d="M1294 649q154 -10 255.5 -86t101.5 -219q0 -164 -134.5 -254t-367.5 -90h-942v1245h868q233 0 367.5 -82t134.5 -231q0 -113 -77 -194t-206 -89zM444 1055v-318h592q152 0 225.5 34t73.5 124t-74.5 125t-224.5 35h-592zM1102 190q150 0 224.5 39t74.5 138q0 100 -75 141 t-224 41h-658v-359h658z" glyph-name="B.aalt" horiz-adv-x="1763"/><glyph d="M915 172q313 0 463 211l224 -107q-92 -147 -270.5 -232t-420.5 -85q-367 0 -582.5 178t-215.5 484q0 309 217 487t590 178q233 0 410 -86t267 -231l-221 -107q-154 211 -461 211q-256 0 -405.5 -116.5t-149.5 -335.5q0 -217 149.5 -333t405.5 -116z" glyph-name="C.aalt" horiz-adv-x="1677"/><glyph d="M1370 1729l-463 -318h-200l319 318h344zM915 172q313 0 463 211l224 -107q-92 -147 -270.5 -232t-420.5 -85q-367 0 -582.5 178t-215.5 484q0 309 217 487t590 178q233 0 410 -86t267 -231l-221 -107q-154 211 -461 211q-256 0 -405.5 -116.5t-149.5 -335.5 q0 -217 149.5 -333t405.5 -116z" glyph-name="Cacute.aalt" horiz-adv-x="1677"/><glyph d="M457 1729h241l203 -203l203 203h242l-316 -318h-256zM915 172q313 0 463 211l224 -107q-92 -147 -270.5 -232t-420.5 -85q-367 0 -582.5 178t-215.5 484q0 309 217 487t590 178q233 0 410 -86t267 -231l-221 -107q-154 211 -461 211q-256 0 -405.5 -116.5t-149.5 -335.5 q0 -217 149.5 -333t405.5 -116z" glyph-name="Ccaron.aalt" horiz-adv-x="1677"/><glyph d="M915 172q313 0 463 211l224 -107q-92 -147 -270.5 -232t-420.5 -85q-367 0 -582.5 178t-215.5 484q0 309 217 487t590 178q233 0 410 -86t267 -231l-221 -107q-154 211 -461 211q-256 0 -405.5 -116.5t-149.5 -335.5q0 -217 149.5 -333t405.5 -116zM1006 -111l-263 -327 l-174 47l209 317z" glyph-name="Ccedilla.aalt" horiz-adv-x="1677"/><glyph d="M457 1411l317 318h256l316 -318h-242l-205 203l-201 -203h-241zM915 172q313 0 463 211l224 -107q-92 -147 -270.5 -232t-420.5 -85q-367 0 -582.5 178t-215.5 484q0 309 217 487t590 178q233 0 410 -86t267 -231l-221 -107q-154 211 -461 211q-256 0 -405.5 -116.5 t-149.5 -335.5q0 -217 149.5 -333t405.5 -116z" glyph-name="Ccircumflex.aalt" horiz-adv-x="1677"/><glyph d="M901 1430q-57 0 -92 29.5t-35 76.5q0 51 35 81t92 30q55 0 89 -30t34 -81q0 -47 -34 -76.5t-89 -29.5zM915 172q313 0 463 211l224 -107q-92 -147 -270.5 -232t-420.5 -85q-367 0 -582.5 178t-215.5 484q0 309 217 487t590 178q233 0 410 -86t267 -231l-221 -107 q-154 211 -461 211q-256 0 -405.5 -116.5t-149.5 -335.5q0 -217 149.5 -333t405.5 -116z" glyph-name="Cdotaccent.aalt" horiz-adv-x="1677"/><glyph d="M874 1245q367 0 582 -167t215 -457q0 -287 -216 -454t-581 -167h-667v1245h667zM856 213q262 0 414.5 103.5t152.5 304.5q0 205 -152.5 308t-414.5 103h-407v-819h407z" glyph-name="D.aalt" horiz-adv-x="1783"/><glyph d="M909 1245q367 0 581 -167t214 -457q0 -287 -214 -454t-581 -167h-671v551h-187v168h187v526h671zM889 211q260 0 413.5 104.5t153.5 305.5q0 205 -153.5 309t-413.5 104h-410v-315h395v-168h-395v-340h410z" glyph-name="Eth.aalt" horiz-adv-x="1816"/><glyph d="M426 1726h242l202 -202l203 202h242l-316 -317h-256zM874 1245q367 0 582 -167t215 -457q0 -287 -216 -454t-581 -167h-667v1245h667zM856 213q262 0 414.5 103.5t152.5 304.5q0 205 -152.5 308t-414.5 103h-407v-819h407z" glyph-name="Dcaron.aalt" horiz-adv-x="1783"/><glyph d="M909 1245q367 0 581 -167t214 -457q0 -287 -214 -454t-581 -167h-671v551h-187v168h187v526h671zM889 211q260 0 413.5 104.5t153.5 305.5q0 205 -153.5 309t-413.5 104h-410v-315h395v-168h-395v-340h410z" glyph-name="Dcroat.aalt" horiz-adv-x="1816"/><glyph d="M449 207h1064v-207h-1306v1245h1288v-207h-1046v-305h874v-203h-874v-323z" glyph-name="e.aalt"/><glyph d="M1311 1726l-463 -317h-201l320 317h344zM449 207h1064v-207h-1306v1245h1288v-207h-1046v-305h874v-203h-874v-323z" glyph-name="eacute.aalt"/><glyph d="M1214 1726q0 -49 -19 -102t-59 -106.5t-116 -87t-176.5 -33.5t-176 33.5t-115.5 87t-59.5 106.5t-19.5 102h172q4 -70 57.5 -121t141.5 -51t141 52.5t57 119.5h172zM449 207h1064v-207h-1306v1245h1288v-207h-1046v-305h874v-203h-874v-323z" glyph-name="ebreve.aalt"/><glyph d="M397 1726h242l203 -202l202 202h242l-315 -317h-256zM449 207h1064v-207h-1306v1245h1288v-207h-1046v-305h874v-203h-874v-323z" glyph-name="ecaron.aalt"/><glyph d="M397 1409l318 317h256l315 -317h-242l-204 203l-201 -203h-242zM449 207h1064v-207h-1306v1245h1288v-207h-1046v-305h874v-203h-874v-323z" glyph-name="ecircumflex.aalt"/><glyph d="M571 1427q-59 0 -97 34t-38 83q0 51 38 85t97 34q57 0 94 -34t37 -85q0 -49 -38 -83t-93 -34zM1116 1427q-57 0 -96 34t-39 83q0 51 39 85t96.5 34t94 -34t36.5 -85q0 -49 -38 -83t-93 -34zM449 207h1064v-207h-1306v1245h1288v-207h-1046v-305h874v-203h-874v-323z" glyph-name="edieresis.aalt"/><glyph d="M844 1427q-57 0 -92 30t-35 77q0 51 34.5 81t92.5 30q55 0 89 -30t34 -81q0 -47 -34 -77t-89 -30zM449 207h1064v-207h-1306v1245h1288v-207h-1046v-305h874v-203h-874v-323z" glyph-name="edotaccent.aalt"/><glyph d="M377 1726h344l319 -317h-200zM449 207h1064v-207h-1306v1245h1288v-207h-1046v-305h874v-203h-874v-323z" glyph-name="egrave.aalt"/><glyph d="M422 1634h840v-180h-840v180zM449 207h1064v-207h-1306v1245h1288v-207h-1046v-305h874v-203h-874v-323z" glyph-name="emacron.aalt"/><glyph d="M1573 -348l49 -66q-92 -92 -246 -92q-119 0 -204 55.5t-85 163.5q0 96 65 173t175 114h-1120v1245h1288v-207h-1046v-305h874v-203h-874v-323h1064v-207h-2q-102 -37 -171.5 -110.5t-69.5 -157.5q0 -63 43 -97t108 -34q84 0 152 51z" glyph-name="eogonek.aalt"/><glyph d="M1491 1036h-1042v-338h876v-209h-876v-489h-242v1245h1284v-209z" glyph-name="f.aalt" horiz-adv-x="1558"/><glyph d="M2007 0h-242v1245h242v-1245zM1491 1036h-1042v-338h876v-209h-876v-489h-242v1245h1284v-209z" glyph-name="uniFB01.aalt" horiz-adv-x="2213"/><glyph d="M2007 213h950v-213h-1192v1245h242v-1032zM1491 1036h-1042v-338h876v-209h-876v-489h-242v1245h1284v-209z" glyph-name="uniFB02.aalt" horiz-adv-x="3010"/><glyph d="M1675 672v-391q-92 -145 -285.5 -233.5t-451.5 -88.5q-385 0 -605 177t-220 485q0 311 220 488t605 177q434 0 676 -242l-201 -143q-168 176 -465 176q-281 0 -434.5 -116.5t-153.5 -339.5q0 -221 155 -338t433 -117q367 0 494 190v127h-529v189h762z" glyph-name="g.aalt" horiz-adv-x="1792"/><glyph d="M1305 1729q0 -49 -19.5 -102.5t-59.5 -107t-116 -87t-176 -33.5t-176 33.5t-116 87t-59.5 106.5t-19.5 103h172q4 -70 57.5 -121.5t141.5 -51.5t141 52.5t58 120.5h172zM1675 672v-391q-92 -145 -285.5 -233.5t-451.5 -88.5q-385 0 -605 177t-220 485q0 311 220 488 t605 177q434 0 676 -242l-201 -143q-168 176 -465 176q-281 0 -434.5 -116.5t-153.5 -339.5q0 -221 155 -338t433 -117q367 0 494 190v127h-529v189h762z" glyph-name="gbreve.aalt" horiz-adv-x="1792"/><glyph d="M487 1411l318 318h256l315 -318h-241l-205 203l-201 -203h-242zM1675 672v-391q-92 -145 -285.5 -233.5t-451.5 -88.5q-385 0 -605 177t-220 485q0 311 220 488t605 177q434 0 676 -242l-201 -143q-168 176 -465 176q-281 0 -434.5 -116.5t-153.5 -339.5q0 -221 155 -338 t433 -117q367 0 494 190v127h-529v189h762z" glyph-name="gcircumflex.aalt" horiz-adv-x="1792"/><glyph d="M1675 672v-391q-92 -145 -285.5 -233.5t-451.5 -88.5q-385 0 -605 177t-220 485q0 311 220 488t605 177q434 0 676 -242l-201 -143q-168 176 -465 176q-281 0 -434.5 -116.5t-153.5 -339.5q0 -221 155 -338t433 -117q367 0 494 190v127h-529v189h762zM934 -115 q72 0 117 -48t45 -122q0 -98 -56.5 -211.5t-156.5 -191.5l-64 67q127 129 146 234q-10 -10 -41 -10q-61 0 -102.5 40t-41.5 101q0 59 43 100t111 41z" glyph-name="gcommaaccent.aalt" horiz-adv-x="1792"/><glyph d="M934 1430q-57 0 -92 29.5t-35 76.5q0 51 35 81t92 30q55 0 89 -30t34 -81q0 -47 -34 -76.5t-89 -29.5zM1675 672v-391q-92 -145 -285.5 -233.5t-451.5 -88.5q-385 0 -605 177t-220 485q0 311 220 488t605 177q434 0 676 -242l-201 -143q-168 176 -465 176 q-281 0 -434.5 -116.5t-153.5 -339.5q0 -221 155 -338t433 -117q367 0 494 190v127h-529v189h762z" glyph-name="gdotaccent.aalt" horiz-adv-x="1792"/><glyph d="M1407 1245h242v-1245h-242v522h-958v-522h-242v1245h242v-504h958v504z" glyph-name="h.aalt" horiz-adv-x="1855"/><glyph d="M1890 1032v-133h-196v-899h-244v522h-956v-522h-244v899h-197v133h197v213h244v-213h956v213h244v-213h196zM1450 741v158h-956v-158h956z" glyph-name="hbar.aalt" horiz-adv-x="1945"/><glyph d="M483 1411l318 318h256l315 -318h-242l-204 203l-201 -203h-242zM1407 1245h242v-1245h-242v522h-958v-522h-242v1245h242v-504h958v504z" glyph-name="hcircumflex.aalt" horiz-adv-x="1855"/><glyph d="M449 0h-242v1245h242v-1245z" glyph-name="I.aalt" horiz-adv-x="655"/><glyph d="M795 1726l-463 -317h-201l320 317h344zM449 0h-242v1245h242v-1245z" glyph-name="Iacute.aalt" horiz-adv-x="655"/><glyph d="M698 1726q0 -49 -19.5 -102t-59 -106.5t-115.5 -87t-176.5 -33.5t-176 33.5t-115.5 87t-59.5 106.5t-19.5 102h172q4 -70 57.5 -121t141.5 -51t141 52.5t57 119.5h172zM449 0h-242v1245h242v-1245z" glyph-name="Ibreve.aalt" horiz-adv-x="655"/><glyph d="M-119 1409l318 317h256l315 -317h-242l-204 203l-201 -203h-242zM449 0h-242v1245h242v-1245z" glyph-name="Icircumflex.aalt" horiz-adv-x="655"/><glyph d="M55 1427q-59 0 -97 34t-38 83q0 51 38 85t97 34q57 0 94 -34t37 -85q0 -49 -38 -83t-93 -34zM600 1427q-57 0 -96 34t-39 83q0 51 39 85t96 34t94 -34t37 -85q0 -49 -38 -83t-93 -34zM449 0h-242v1245h242v-1245z" glyph-name="Idieresis.aalt" horiz-adv-x="655"/><glyph d="M326 1427q-57 0 -92 30t-35 77q0 51 34.5 81t92.5 30q55 0 89 -30t34 -81q0 -47 -34 -77t-89 -30zM449 0h-242v1245h242v-1245z" glyph-name="Idotaccent.aalt" horiz-adv-x="655"/><glyph d="M-141 1726h344l319 -317h-200zM449 0h-242v1245h242v-1245z" glyph-name="Igrave.aalt" horiz-adv-x="655"/><glyph d="M868 313q104 -141 336 -141q375 0 375 375v698h244v-717q0 -254 -157 -411.5t-462 -157.5q-352 0 -522 221zM449 0h-242v1245h242v-1245z" glyph-name="IJ.aalt" horiz-adv-x="2002"/><glyph d="M-82 1823h840v-181h-840v181zM463 0h-246v1434h246v-1434z" glyph-name="Imacron.aalt" horiz-adv-x="677"/><glyph d="M522 -348l49 -66q-92 -92 -245 -92q-119 0 -204 55.5t-85 163.5q0 96 64.5 173t174.5 114h-59v1434h246v-1434h-2q-102 -37 -172 -110.5t-70 -157.5q0 -63 43 -97t109 -34q83 0 151 51z" glyph-name="Iogonek.aalt" horiz-adv-x="677"/><glyph d="M750 1909l124 -123q-45 -68 -126.5 -117t-190.5 -49q-92 0 -223 57.5t-207 57.5q-72 0 -116 -26t-83 -75l-123 121q45 68 127 118t191 50q90 0 221 -57.5t211 -57.5q117 1 195 101zM463 0h-246v1434h246v-1434z" glyph-name="Itilde.aalt" horiz-adv-x="677"/><glyph d="M213 313q104 -141 336 -141q375 0 375 375v698h243v-717q0 -254 -156.5 -411.5t-461.5 -157.5q-352 0 -522 221z" glyph-name="J.aalt" horiz-adv-x="1347"/><glyph d="M600 1409l318 317h256l315 -317h-242l-205 203l-200 -203h-242zM213 313q104 -141 336 -141q375 0 375 375v698h243v-717q0 -254 -156.5 -411.5t-461.5 -157.5q-352 0 -522 221z" glyph-name="Jcircumflex.aalt" horiz-adv-x="1347"/><glyph d="M1372 0l-551 618l-372 -292v-326h-242v1245h242v-661l854 661h327l-620 -491l657 -754h-295z" glyph-name="K.aalt" horiz-adv-x="1683"/><glyph d="M1010 754l657 -754h-295l-551 618l-372 -292v-326h-242v1245h242v-661l854 661h327zM887 -115q72 0 117 -48t45 -122q0 -98 -56.5 -211.5t-156.5 -191.5l-64 67q127 129 146 234q-10 -10 -41 -10q-61 0 -102.5 40t-41.5 101q0 59 43 100t111 41z" glyph-name="Kcommaaccent.aalt" horiz-adv-x="1683"/><glyph d="M449 213h950v-213h-1192v1245h242v-1032z" glyph-name="L.aalt" horiz-adv-x="1452"/><glyph d="M795 1726l-463 -317h-201l320 317h344zM449 213h950v-213h-1192v1245h242v-1032z" glyph-name="Lacute.aalt" horiz-adv-x="1452"/><glyph d="M930 1317q72 0 117 -48t45 -122q0 -98 -56.5 -212t-156.5 -192l-64 68q127 129 146 233q-10 -10 -41 -10q-61 0 -102.5 40t-41.5 102q0 59 43 100t111 41zM449 213h950v-213h-1192v1245h242v-1032z" glyph-name="Lcaron.aalt" horiz-adv-x="1452"/><glyph d="M449 213h950v-213h-1192v1245h242v-1032zM805 -115q72 0 117 -48t45 -122q0 -98 -56.5 -211.5t-156.5 -191.5l-64 67q127 129 146 234q-10 -10 -41 -10q-61 0 -102.5 40t-41.5 101q0 59 43 100t111 41z" glyph-name="Lcommaaccent.aalt" horiz-adv-x="1452"/><glyph d="M449 205h950v-205h-1192v1245h242v-1040zM868 590q-70 0 -113.5 40t-43.5 101q0 59 45 100t112.5 41t111.5 -40.5t44 -100.5q0 -61 -44 -101t-112 -40z" glyph-name="Ldot.aalt" horiz-adv-x="1452"/><glyph d="M535 213h950v-213h-1192v455l-213 -105v168l213 105v622h242v-504l380 185v-170l-380 -185v-358z" glyph-name="Lslash.aalt" horiz-adv-x="1538"/><glyph d="M1651 1245h260v-1245h-242v930l-606 -699h-14l-609 699v-930h-233v1245h262l592 -690z" glyph-name="M.aalt" horiz-adv-x="2115"/><glyph d="M1413 1245h236v-1245h-213l-996 948v-948h-233v1245h258l948 -907v907z" glyph-name="N.aalt" horiz-adv-x="1855"/><glyph d="M1397 1726l-463 -317h-201l320 317h344zM1413 1245h236v-1245h-213l-996 948v-948h-233v1245h258l948 -907v907z" glyph-name="Nacute.aalt" horiz-adv-x="1855"/><glyph d="M483 1726h242l203 -202l202 202h242l-315 -317h-256zM1413 1245h236v-1245h-213l-996 948v-948h-233v1245h258l948 -907v907z" glyph-name="Ncaron.aalt" horiz-adv-x="1855"/><glyph d="M1413 1245h236v-1245h-213l-996 948v-948h-233v1245h258l948 -907v907zM930 -115q72 0 117 -48t45 -122q0 -98 -56.5 -211.5t-156.5 -191.5l-64 67q127 129 146 234q-10 -10 -41 -10q-61 0 -102.5 40t-41.5 101q0 59 43 100t111 41z" glyph-name="Ncommaaccent.aalt" horiz-adv-x="1855"/><glyph d="M1649 977h2v-1004q0 -170 -101.5 -267t-269.5 -97q-119 0 -213 33l47 170q45 -18 117 -19q92 0 138 39t46 131v57l-975 928v-948h-233v1245h258l946 -907v639v268h238v-268z" glyph-name="Eng.aalt" horiz-adv-x="1855"/><glyph d="M1337 1720l125 -123q-45 -68 -127 -116.5t-190 -48.5q-92 0 -223 57t-207 57q-72 0 -116 -25.5t-83 -74.5l-123 121q45 68 127 118t191 50q92 0 223 -57.5t209 -57.5q116 0 194 100zM1413 1245h236v-1245h-213l-996 948v-948h-233v1245h258l948 -907v907z" glyph-name="Ntilde.aalt" horiz-adv-x="1855"/><glyph d="M928 -41q-377 0 -596 178t-219 484q0 309 218 487t597 178q377 0 594 -178t217 -487q0 -305 -217 -483.5t-594 -178.5zM926 166q260 0 413.5 120t153.5 335q0 217 -152.5 337.5t-414.5 120.5t-415 -120.5t-153 -337.5q0 -215 154 -335t414 -120z" glyph-name="O.c2sc" horiz-adv-x="1853"/><glyph d="M1395 1726l-463 -317h-201l320 317h344zM928 -41q-377 0 -596 178t-219 484q0 309 218 487t597 178q377 0 594 -178t217 -487q0 -305 -217 -483.5t-594 -178.5zM926 166q260 0 413.5 120t153.5 335q0 217 -152.5 337.5t-414.5 120.5t-415 -120.5t-153 -337.5 q0 -215 154 -335t414 -120z" glyph-name="Oacute.aalt" horiz-adv-x="1853"/><glyph d="M1298 1726q0 -49 -19 -102t-59 -106.5t-116 -87t-176.5 -33.5t-176 33.5t-115.5 87t-59.5 106.5t-19.5 102h172q4 -70 57.5 -121t141.5 -51t141 52.5t57 119.5h172zM928 -41q-377 0 -596 178t-219 484q0 309 218 487t597 178q377 0 594 -178t217 -487q0 -305 -217 -483.5 t-594 -178.5zM926 166q260 0 413.5 120t153.5 335q0 217 -152.5 337.5t-414.5 120.5t-415 -120.5t-153 -337.5q0 -215 154 -335t414 -120z" glyph-name="Obreve.aalt" horiz-adv-x="1853"/><glyph d="M483 1409l318 317h256l315 -317h-242l-204 203l-201 -203h-242zM928 -41q-377 0 -596 178t-219 484q0 309 218 487t597 178q377 0 594 -178t217 -487q0 -305 -217 -483.5t-594 -178.5zM926 166q260 0 413.5 120t153.5 335q0 217 -152.5 337.5t-414.5 120.5t-415 -120.5 t-153 -337.5q0 -215 154 -335t414 -120z" glyph-name="Ocircumflex.aalt" horiz-adv-x="1853"/><glyph d="M655 1427q-59 0 -97 34t-38 83q0 51 38 85t97 34q57 0 94 -34t37 -85q0 -49 -38 -83t-93 -34zM1200 1427q-57 0 -96 34t-39 83q0 51 39 85t96 34t94 -34t37 -85q0 -49 -38 -83t-93 -34zM928 -41q-377 0 -596 178t-219 484q0 309 218 487t597 178q377 0 594 -178t217 -487 q0 -305 -217 -483.5t-594 -178.5zM926 166q260 0 413.5 120t153.5 335q0 217 -152.5 337.5t-414.5 120.5t-415 -120.5t-153 -337.5q0 -215 154 -335t414 -120z" glyph-name="Odieresis.aalt" horiz-adv-x="1853"/><glyph d="M461 1726h344l319 -317h-200zM928 -41q-377 0 -596 178t-219 484q0 309 218 487t597 178q377 0 594 -178t217 -487q0 -305 -217 -483.5t-594 -178.5zM926 166q260 0 413.5 120t153.5 335q0 217 -152.5 337.5t-414.5 120.5t-415 -120.5t-153 -337.5q0 -215 154 -335 t414 -120z" glyph-name="Ograve.aalt" horiz-adv-x="1853"/><glyph d="M1081 1726l-338 -317h-229l336 317h231zM1511 1726l-335 -317h-232l336 317h231zM928 -41q-377 0 -596 178t-219 484q0 309 218 487t597 178q377 0 594 -178t217 -487q0 -305 -217 -483.5t-594 -178.5zM926 166q260 0 413.5 120t153.5 335q0 217 -152.5 337.5 t-414.5 120.5t-415 -120.5t-153 -337.5q0 -215 154 -335t414 -120z" glyph-name="Ohungarumlaut.aalt" horiz-adv-x="1853"/><glyph d="M508 1634h840v-180h-840v180zM928 -41q-377 0 -596 178t-219 484q0 309 218 487t597 178q377 0 594 -178t217 -487q0 -305 -217 -483.5t-594 -178.5zM926 166q260 0 413.5 120t153.5 335q0 217 -152.5 337.5t-414.5 120.5t-415 -120.5t-153 -337.5q0 -215 154 -335 t414 -120z" glyph-name="Omacron.aalt" horiz-adv-x="1853"/><glyph d="M1440 1165q299 -174 299 -544q0 -305 -217 -483.5t-594 -178.5q-190 0 -344 47l-146 -196h-209l197 264q-152 84 -232.5 224t-80.5 323q0 309 218 487t597 178q203 0 354 -51l150 201h208zM358 621q0 -248 201 -367l588 799q-106 27 -221 26q-262 0 -415 -120.5 t-153 -337.5zM926 166q260 0 413.5 120t153.5 335q0 240 -188 362l-586 -793q96 -24 207 -24z" glyph-name="Oslash.aalt" horiz-adv-x="1853"/><glyph d="M1395 1726l-463 -317h-201l320 317h344zM1440 1165q299 -174 299 -544q0 -305 -217 -483.5t-594 -178.5q-190 0 -344 47l-146 -196h-209l197 264q-152 84 -232.5 224t-80.5 323q0 309 218 487t597 178q203 0 354 -51l150 201h208zM358 621q0 -248 201 -367l588 799 q-106 27 -221 26q-262 0 -415 -120.5t-153 -337.5zM926 166q260 0 413.5 120t153.5 335q0 240 -188 362l-586 -793q96 -24 207 -24z" glyph-name="Oslashacute.aalt" horiz-adv-x="1853"/><glyph d="M1337 1720l125 -123q-45 -68 -127 -116.5t-190 -48.5q-92 0 -223 57t-207 57q-72 0 -116 -25.5t-83 -74.5l-123 121q45 68 127 118t191 50q92 0 223 -57.5t209 -57.5q116 0 194 100zM928 -41q-377 0 -596 178t-219 484q0 309 218 487t597 178q377 0 594 -178t217 -487 q0 -305 -217 -483.5t-594 -178.5zM926 166q260 0 413.5 120t153.5 335q0 217 -152.5 337.5t-414.5 120.5t-415 -120.5t-153 -337.5q0 -215 154 -335t414 -120z" glyph-name="Otilde.aalt" horiz-adv-x="1853"/><glyph d="M1579 207h1067v-207h-1309h-428q-367 0 -581.5 167t-214.5 454q0 291 215 457.5t581 166.5h428h1289v-207h-1047v-305h877v-203h-877v-323zM1337 209v827h-409q-260 0 -414 -105.5t-154 -309.5q0 -201 154 -306.5t414 -105.5h409z" glyph-name="oe.aalt" horiz-adv-x="2754"/><glyph d="M1090 1245q244 0 389 -109.5t145 -304.5q0 -197 -145.5 -305t-388.5 -108h-641v-418h-242v1245h883zM1069 621q307 0 307 208q0 211 -307 211h-620v-419h620z" glyph-name="p.aalt" horiz-adv-x="1701"/><glyph d="M1077 1047q250 0 398.5 -109t148.5 -305.5t-148.5 -304t-398.5 -107.5h-628v-221h-242v1245h242v-198h628zM1057 424q319 0 319 209q0 113 -81 161t-238 48h-608v-418h608z" glyph-name="thorn.aalt" horiz-adv-x="1701"/><glyph d="M1739 621q0 -334 -254 -512l184 -191l-135 -121l-219 223q-166 -61 -387 -61q-377 0 -596 178t-219 484q0 309 218 487t597 178q377 0 594 -178t217 -487zM926 166q115 0 221 27l-193 196l136 123l233 -240q170 123 170 349q0 217 -152.5 337.5t-414.5 120.5t-415 -120.5 t-153 -337.5q0 -215 154 -335t414 -120z" glyph-name="q.aalt" horiz-adv-x="1853"/><glyph d="M1671 0h-303l-391 442h-528v-442h-242v1245h891q236 0 384 -105.5t148 -295.5q0 -158 -101.5 -257.5t-271.5 -131.5zM444 643h633q305 0 305 198.5t-305 198.5h-633v-397z" glyph-name="r.aalt" horiz-adv-x="1763"/><glyph d="M1311 1726l-463 -317h-201l320 317h344zM1671 0h-303l-391 442h-528v-442h-242v1245h891q236 0 384 -105.5t148 -295.5q0 -158 -101.5 -257.5t-271.5 -131.5zM444 643h633q305 0 305 198.5t-305 198.5h-633v-397z" glyph-name="racute.aalt" horiz-adv-x="1763"/><glyph d="M973 1409h-256l-318 317h242l203 -202l203 202h241zM1671 0h-303l-391 442h-528v-442h-242v1245h891q236 0 384 -105.5t148 -295.5q0 -158 -101.5 -257.5t-271.5 -131.5zM444 643h633q305 0 305 198.5t-305 198.5h-633v-397z" glyph-name="rcaron.aalt" horiz-adv-x="1763"/><glyph d="M1257 455l414 -455h-303l-391 442h-528v-442h-242v1245h891q236 0 384 -105.5t148 -295.5q0 -158 -101.5 -257t-271.5 -132zM444 643h633q305 0 305 198.5t-305 198.5h-633v-397zM883 -115q72 0 116.5 -48t44.5 -122q0 -98 -56 -211.5t-157 -191.5l-63 67 q127 129 145 234q-10 -10 -41 -10q-61 0 -102 40t-41 101q0 59 43 100t111 41z" glyph-name="rcommaaccent.aalt" horiz-adv-x="1763"/><glyph d="M864 745q133 -12 230.5 -26t188.5 -42t148.5 -67t91 -98t33.5 -137q0 -186 -181 -300t-507 -114q-483 0 -784 252l149 154q252 -209 641 -209q211 0 325 51t114 143q0 84 -106.5 120t-372.5 60q-150 14 -263.5 37t-219 63t-162 108.5t-56.5 160.5q0 178 196.5 281.5 t489.5 103.5q412 0 674 -205l-145 -149q-195 156 -529 160q-178 0 -309 -43t-131 -131q0 -84 118.5 -118.5t366.5 -54.5z" glyph-name="S.aalt" horiz-adv-x="1648"/><glyph d="M1298 1726l-462 -317h-201l319 317h344zM864 745q133 -12 230.5 -26t188.5 -42t148.5 -67t91 -98t33.5 -137q0 -186 -181 -300t-507 -114q-483 0 -784 252l149 154q252 -209 641 -209q211 0 325 51t114 143q0 84 -106.5 120t-372.5 60q-150 14 -263.5 37t-219 63 t-162 108.5t-56.5 160.5q0 178 196.5 281.5t489.5 103.5q412 0 674 -205l-145 -149q-195 156 -529 160q-178 0 -309 -43t-131 -131q0 -84 118.5 -118.5t366.5 -54.5z" glyph-name="Sacute.aalt" horiz-adv-x="1648"/><glyph d="M385 1726h242l202 -202l203 202h242l-316 -317h-256zM864 745q133 -12 230.5 -26t188.5 -42t148.5 -67t91 -98t33.5 -137q0 -186 -181 -300t-507 -114q-483 0 -784 252l149 154q252 -209 641 -209q211 0 325 51t114 143q0 84 -106.5 120t-372.5 60q-150 14 -263.5 37 t-219 63t-162 108.5t-56.5 160.5q0 178 196.5 281.5t489.5 103.5q412 0 674 -205l-145 -149q-195 156 -529 160q-178 0 -309 -43t-131 -131q0 -84 118.5 -118.5t366.5 -54.5z" glyph-name="Scaron.aalt" horiz-adv-x="1648"/><glyph d="M864 745q133 -12 230.5 -26t188.5 -42t148.5 -67t91 -98t33.5 -137q0 -186 -181 -300t-507 -114q-483 0 -784 252l149 154q252 -209 641 -209q211 0 325 51t114 143q0 84 -106.5 120t-372.5 60q-150 14 -263.5 37t-219 63t-162 108.5t-56.5 160.5q0 178 196.5 281.5 t489.5 103.5q412 0 674 -205l-145 -149q-195 156 -529 160q-178 0 -309 -43t-131 -131q0 -84 118.5 -118.5t366.5 -54.5zM948 -111l-262 -327l-174 47l209 317z" glyph-name="Scedilla.c2sc" horiz-adv-x="1648"/><glyph d="M385 1409l317 317h256l316 -317h-242l-205 203l-200 -203h-242zM864 745q133 -12 230.5 -26t188.5 -42t148.5 -67t91 -98t33.5 -137q0 -186 -181 -300t-507 -114q-483 0 -784 252l149 154q252 -209 641 -209q211 0 325 51t114 143q0 84 -106.5 120t-372.5 60 q-150 14 -263.5 37t-219 63t-162 108.5t-56.5 160.5q0 178 196.5 281.5t489.5 103.5q412 0 674 -205l-145 -149q-195 156 -529 160q-178 0 -309 -43t-131 -131q0 -84 118.5 -118.5t366.5 -54.5z" glyph-name="Scircumflex.aalt" horiz-adv-x="1648"/><glyph d="M864 745q133 -12 230.5 -26t188.5 -42t148.5 -67t91 -98t33.5 -137q0 -186 -181 -300t-507 -114q-483 0 -784 252l149 154q252 -209 641 -209q211 0 325 51t114 143q0 84 -106.5 120t-372.5 60q-150 14 -263.5 37t-219 63t-162 108.5t-56.5 160.5q0 178 196.5 281.5 t489.5 103.5q412 0 674 -205l-145 -149q-195 156 -529 160q-178 0 -309 -43t-131 -131q0 -84 118.5 -118.5t366.5 -54.5zM856 -115q72 0 117 -48t45 -122q0 -98 -56.5 -211.5t-156.5 -191.5l-64 67q127 129 146 234q-10 -10 -41 -10q-61 0 -102.5 40t-41.5 101q0 59 43 100 t111 41z" glyph-name="Scommaaccent.aalt" horiz-adv-x="1648"/><glyph d="M864 745q133 -12 230.5 -26t188.5 -42t148.5 -67t91 -98t33.5 -137q0 -186 -181 -300t-507 -114q-483 0 -784 252l149 154q252 -209 641 -209q211 0 325 51t114 143q0 84 -106.5 120t-372.5 60q-150 14 -263.5 37t-219 63t-162 108.5t-56.5 160.5q0 178 196.5 281.5 t489.5 103.5q412 0 674 -205l-145 -149q-195 156 -529 160q-178 0 -309 -43t-131 -131q0 -84 118.5 -118.5t366.5 -54.5zM2513 745q133 -12 230.5 -26t188.5 -42t148.5 -67t91 -98t33.5 -137q0 -186 -181 -300t-507 -114q-483 0 -784 252l149 154q252 -209 641 -209 q211 0 324.5 51t113.5 143q0 84 -106.5 120t-372.5 60q-150 14 -263.5 37t-219 63t-161.5 108.5t-56 160.5q0 178 196.5 281.5t489.5 103.5q412 0 674 -205l-146 -149q-195 156 -528 160q-178 0 -309 -43t-131 -131q0 -84 118.5 -118.5t366.5 -54.5z" glyph-name="germandbls.sc" horiz-adv-x="3295"/><glyph d="M1462 1245v-211h-585v-1034h-242v1034h-584v211h1411z" glyph-name="T.aalt" horiz-adv-x="1513"/><glyph d="M1452 1034h-586v-299h305v-180h-305v-555h-241v555h-291v180h291v299h-584v211h1411v-211z" glyph-name="Tbar.aalt" horiz-adv-x="1492"/><glyph d="M313 1726h242l203 -202l203 202h241l-315 -317h-256zM1462 1245v-211h-585v-1034h-242v1034h-584v211h1411z" glyph-name="Tcaron.aalt" horiz-adv-x="1513"/><glyph d="M1462 1245v-211h-585v-1034h-242v1034h-584v211h1411zM856 -94l-262 -328l-174 47l209 318z" glyph-name="Tcommaaccent.aalt" horiz-adv-x="1513"/><glyph d="M1368 1245h240v-659q0 -285 -186.5 -456t-526.5 -171t-526.5 172t-186.5 455v659h242v-643q0 -201 122 -314.5t349 -113.5t350 113.5t123 314.5v643z" glyph-name="U.aalt" horiz-adv-x="1789"/><glyph d="M1364 1726l-463 -317h-201l320 317h344zM1368 1245h240v-659q0 -285 -186.5 -456t-526.5 -171t-526.5 172t-186.5 455v659h242v-643q0 -201 122 -314.5t349 -113.5t350 113.5t123 314.5v643z" glyph-name="Uacute.aalt" horiz-adv-x="1789"/><glyph d="M1268 1726q0 -49 -19.5 -102t-59.5 -106.5t-116 -87t-176 -33.5t-176 33.5t-116 87t-59.5 106.5t-19.5 102h172q4 -70 57.5 -121t141.5 -51t141.5 52.5t57.5 119.5h172zM1368 1245h240v-659q0 -285 -186.5 -456t-526.5 -171t-526.5 172t-186.5 455v659h242v-643 q0 -201 122 -314.5t349 -113.5t350 113.5t123 314.5v643z" glyph-name="Ubreve.aalt" horiz-adv-x="1789"/><glyph d="M451 1409l317 317h256l315 -317h-241l-205 203l-201 -203h-241zM1368 1245h240v-659q0 -285 -186.5 -456t-526.5 -171t-526.5 172t-186.5 455v659h242v-643q0 -201 122 -314.5t349 -113.5t350 113.5t123 314.5v643z" glyph-name="Ucircumflex.aalt" horiz-adv-x="1789"/><glyph d="M625 1427q-59 0 -97.5 34t-38.5 83q0 51 38 85t98 34q57 0 94 -34t37 -85q0 -49 -38 -83t-93 -34zM1169 1427q-57 0 -96 34t-39 83q0 51 39 85t96.5 34t94 -34t36.5 -85q0 -49 -38 -83t-93 -34zM1368 1245h240v-659q0 -285 -186.5 -456t-526.5 -171t-526.5 172 t-186.5 455v659h242v-643q0 -201 122 -314.5t349 -113.5t350 113.5t123 314.5v643z" glyph-name="Udieresis.aalt" horiz-adv-x="1789"/><glyph d="M430 1726h344l320 -317h-201zM1368 1245h240v-659q0 -285 -186.5 -456t-526.5 -171t-526.5 172t-186.5 455v659h242v-643q0 -201 122 -314.5t349 -113.5t350 113.5t123 314.5v643z" glyph-name="Ugrave.aalt" horiz-adv-x="1789"/><glyph d="M1051 1726l-338 -317h-230l336 317h232zM1481 1726l-336 -317h-232l336 317h232zM1368 1245h240v-659q0 -285 -186.5 -456t-526.5 -171t-526.5 172t-186.5 455v659h242v-643q0 -201 122 -314.5t349 -113.5t350 113.5t123 314.5v643z" glyph-name="Uhungarumlaut.aalt" horiz-adv-x="1789"/><glyph d="M475 1634h840v-180h-840v180zM1368 1245h240v-659q0 -285 -186.5 -456t-526.5 -171t-526.5 172t-186.5 455v659h242v-643q0 -201 122 -314.5t349 -113.5t350 113.5t123 314.5v643z" glyph-name="Umacron.aalt" horiz-adv-x="1789"/><glyph d="M1368 1245h240v-659q0 -213 -107.5 -366.5t-310.5 -219.5q-102 -37 -172 -110.5t-70 -157.5q0 -63 43 -97t109 -34q84 0 151 51l49 -66q-92 -92 -245 -92q-119 0 -204 55.5t-85 163.5q0 152 149 246h-20q-340 0 -526.5 172t-186.5 455v659h242v-643q0 -201 122 -314.5 t349 -113.5t350 113.5t123 314.5v643z" glyph-name="Uogonek.aalt" horiz-adv-x="1789"/><glyph d="M895 1393q-125 0 -205 59t-80 168t80 169t205 60t206 -60t81 -169t-81 -168t-206 -59zM764 1620q0 -57 36 -88t97 -31t98 31t37 88q0 55 -37 87t-98 32t-97 -32t-36 -87zM1368 1245h240v-659q0 -285 -186.5 -456t-526.5 -171t-526.5 172t-186.5 455v659h242v-643 q0 -201 122 -314.5t349 -113.5t350 113.5t123 314.5v643z" glyph-name="Uring.aalt" horiz-adv-x="1789"/><glyph d="M1305 1720l125 -123q-45 -68 -127 -116.5t-191 -48.5q-92 0 -223 57t-207 57q-72 0 -116 -25.5t-83 -74.5l-123 121q45 68 127 118t191 50q92 0 223 -57.5t209 -57.5q117 0 195 100zM1368 1245h240v-659q0 -285 -186.5 -456t-526.5 -171t-526.5 172t-186.5 455v659h242 v-643q0 -201 122 -314.5t349 -113.5t350 113.5t123 314.5v643z" glyph-name="Utilde.aalt" horiz-adv-x="1789"/><glyph d="M27 1245h270l530 -997l533 997h264l-668 -1245h-262z" glyph-name="V.aalt" horiz-adv-x="1650"/><glyph d="M1997 1245h252l-475 -1245h-250l-373 977l-373 -977h-250l-475 1245h256l348 -973l377 973h238l375 -973z" glyph-name="W.aalt" horiz-adv-x="2299"/><glyph d="M1620 1726l-463 -317h-201l320 317h344zM1997 1245h252l-475 -1245h-250l-373 977l-373 -977h-250l-475 1245h256l348 -973l377 973h238l375 -973z" glyph-name="Wacute.aalt" horiz-adv-x="2299"/><glyph d="M707 1409l317 317h256l315 -317h-241l-205 203l-201 -203h-241zM1997 1245h252l-475 -1245h-250l-373 977l-373 -977h-250l-475 1245h256l348 -973l377 973h238l375 -973z" glyph-name="Wcircumflex.aalt" horiz-adv-x="2299"/><glyph d="M881 1427q-59 0 -97.5 34t-38.5 83q0 51 38 85t98 34q57 0 94 -34t37 -85q0 -49 -38 -83t-93 -34zM1425 1427q-57 0 -96 34t-39 83q0 51 39 85t96.5 34t94 -34t36.5 -85q0 -49 -38 -83t-93 -34zM1997 1245h252l-475 -1245h-250l-373 977l-373 -977h-250l-475 1245h256 l348 -973l377 973h238l375 -973z" glyph-name="Wdieresis.aalt" horiz-adv-x="2299"/><glyph d="M686 1726h344l320 -317h-201zM1997 1245h252l-475 -1245h-250l-373 977l-373 -977h-250l-475 1245h256l348 -973l377 973h238l375 -973z" glyph-name="Wgrave.aalt" horiz-adv-x="2299"/><glyph d="M1530 1245l-598 -612l604 -633h-301l-457 471l-456 -471h-289l606 629l-598 616h301l449 -461l450 461h289z" glyph-name="X.aalt" horiz-adv-x="1568"/><glyph d="M29 1245h280l482 -616l475 616h280l-637 -815v-430h-241v430z" glyph-name="Y.aalt" horiz-adv-x="1574"/><glyph d="M1255 1726l-462 -317h-201l319 317h344zM29 1245h280l482 -616l475 616h280l-637 -815v-430h-241v430z" glyph-name="Yacute.aalt" horiz-adv-x="1574"/><glyph d="M344 1409l318 317h256l315 -317h-242l-205 203l-200 -203h-242zM29 1245h280l482 -616l475 616h280l-637 -815v-430h-241v430z" glyph-name="Ycircumflex.aalt" horiz-adv-x="1574"/><glyph d="M516 1427q-59 0 -97 34t-38 83q0 51 38 85t97 34q57 0 94 -34t37 -85q0 -49 -38 -83t-93 -34zM1061 1427q-57 0 -96 34t-39 83q0 51 39 85t96 34t94 -34t37 -85q0 -49 -38 -83t-93 -34zM29 1245h280l482 -616l475 616h280l-637 -815v-430h-241v430z" glyph-name="ydieresis.aalt" horiz-adv-x="1574"/><glyph d="M322 1726h344l319 -317h-201zM29 1245h280l482 -616l475 616h280l-637 -815v-430h-241v430z" glyph-name="Ygrave.aalt" horiz-adv-x="1574"/><glyph d="M1479 1245v-166l-1022 -874h1050v-205h-1415v166l1020 874h-987v205h1354z" glyph-name="Z.aalt" horiz-adv-x="1601"/><glyph d="M1300 1726l-462 -317h-201l319 317h344zM1479 1245v-166l-1022 -874h1050v-205h-1415v166l1020 874h-987v205h1354z" glyph-name="Zacute.aalt" horiz-adv-x="1601"/><glyph d="M387 1726h242l202 -202l203 202h242l-315 -317h-256zM1479 1245v-166l-1022 -874h1050v-205h-1415v166l1020 874h-987v205h1354z" glyph-name="Zcaron.aalt" horiz-adv-x="1601"/><glyph d="M831 1427q-57 0 -91.5 30t-34.5 77q0 51 34.5 81t91.5 30q55 0 89 -30t34 -81q0 -47 -34 -77t-89 -30zM1479 1245v-166l-1022 -874h1050v-205h-1415v166l1020 874h-987v205h1354z" glyph-name="Zdotaccent.aalt" horiz-adv-x="1601"/><glyph d="M913.5 -43q-364.5 0 -580.5 180t-216 499.5t215 494t581.5 174.5t581.5 -174.5t215 -494t-216 -499.5t-580.5 -180zM913 174q254 0 401.5 116t147.5 341t-147.5 339.5t-401.5 114.5q-252 0 -399 -114.5t-147 -339.5t147 -341t399 -116z" glyph-name="zero.oldstyle" horiz-adv-x="1826"/><glyph d="M512 0v975q-172 -133 -440 -176v213q262 39 499 248h187v-1260h-246z" glyph-name="one.oldstyle" horiz-adv-x="972"/><glyph d="M123 983q94 137 290.5 228.5t434.5 91.5q162 0 308.5 -42t248.5 -134.5t102 -219.5q0 -82 -41 -147.5t-125 -116.5t-170 -87t-215 -77q-260 -84 -394 -145.5t-163 -136.5h1137v-197h-1446v111q29 168 219.5 307t493.5 231q31 8 98.5 28.5t97 30t80.5 27t76 32.5 t52.5 36.5t38.5 46t11 55.5q0 100 -125.5 148.5t-293.5 48.5q-172 0 -316.5 -62.5t-236.5 -177.5z" glyph-name="two.oldstyle" horiz-adv-x="1648"/><glyph d="M279 244q78 -121 231.5 -188.5t353.5 -67.5q199 0 333 64.5t134 191.5q0 88 -69.5 140t-178 71.5t-266.5 19.5h-199v193h199q201 0 334 54t133 161q0 72 -66.5 122t-160.5 71.5t-203 21.5q-385 0 -553 -240l-190 117q238 326 731 325q293 0 493.5 -105t200.5 -290 q0 -133 -103.5 -223t-246.5 -104q164 -23 284.5 -109t120.5 -244q0 -205 -206.5 -322.5t-520.5 -117.5q-266 0 -467.5 92t-322.5 254z" glyph-name="three.oldstyle" horiz-adv-x="1705"/><glyph d="M1706 352v-196h-301v-330h-244v330h-1112v151l1137 953h219v-908h301zM393 352h770v643z" glyph-name="four.oldstyle" horiz-adv-x="1775"/><glyph d="M248 252q96 -115 263 -186.5t370 -71.5q221 0 353 68.5t132 208t-138 210t-380 70.5q-254 0 -510 -107l-191 78l123 738h1198v-205h-1005l-72 -434q236 125 543 124q188 0 338.5 -50t248 -160.5t97.5 -268.5q0 -209 -195.5 -346t-541.5 -137q-250 0 -456 88t-343 242z " glyph-name="five.oldstyle" horiz-adv-x="1708"/><glyph d="M1055 924q168 0 312 -47.5t243.5 -158t99.5 -265.5q0 -221 -201.5 -358.5t-545.5 -137.5q-393 0 -619.5 205t-226.5 555t226 555t620 205q457 0 696 -250l-162 -144q-195 197 -516 197q-285 0 -449.5 -137t-164.5 -426q0 -35 2 -51q113 121 294 189.5t392 68.5zM963 154 q229 0 364 77.5t135 223.5q0 143 -126 210.5t-332 67.5q-170 0 -334 -62.5t-273 -176.5q107 -340 566 -340z" glyph-name="six.oldstyle" horiz-adv-x="1812"/><glyph d="M406 -174l804 1223h-1155v211h1461v-168l-826 -1266h-284z" glyph-name="seven.oldstyle" horiz-adv-x="1546"/><glyph d="M1284 754q164 -18 289 -109.5t125 -249.5q0 -203 -218 -320.5t-573 -117.5q-356 0 -573 118t-217 320q0 158 125 249t288 110q-152 14 -255 100t-103 223q0 186 208 293t527 107q317 0 526 -106.5t209 -293.5q0 -137 -103 -223t-255 -100zM420 1059q0 -115 137 -169 t350 -54t350.5 54t137.5 169t-137.5 170t-350.5 55t-350 -55t-137 -170zM905 150q248 0 392.5 62t144.5 191q0 123 -146.5 188.5t-390.5 65.5q-242 0 -388 -65.5t-146 -188t146 -188t388 -65.5z" glyph-name="eight.oldstyle" horiz-adv-x="1814"/><glyph d="M850 1303q393 0 619.5 -205t226.5 -555t-226.5 -555t-619.5 -205q-457 0 -696 250l161 143q195 -197 516 -196q285 0 450 137t165 426q0 35 -2 51q-113 -121 -294 -189.5t-392 -68.5q-168 0 -312.5 47t-244 157.5t-99.5 266.5q0 221 202 358.5t546 137.5zM809 526 q168 0 333 63.5t273 176.5q-106 340 -565 340q-229 0 -364.5 -78t-135.5 -223q0 -143 126 -211t333 -68z" glyph-name="nine.oldstyle" horiz-adv-x="1812"/><glyph d="M561 -256q-225 0 -353 119t-128 327q0 207 129 327t352 120q225 0 353 -120t128 -327q0 -209 -128 -327.5t-353 -118.5zM561.5 -117q149.5 0 234.5 80t85 227.5t-86 227.5t-234 80q-150 0 -234.5 -80t-84.5 -227.5t85 -227.5t234.5 -80z" glyph-name="zero.inferior" horiz-adv-x="1120"/><glyph d="M291 -231v657q-88 -72 -244 -96v135q156 23 283 145h121v-841h-160z" glyph-name="one.inferior" horiz-adv-x="585"/><glyph d="M82 440q152 197 416 197q152 0 265.5 -67.5t113.5 -184.5q0 -100 -80 -166.5t-232 -124.5q-145 -55 -220 -97t-93 -95h643v-133h-832v84q37 221 406 354q14 6 41 16t39 15.5t34.5 14.5t33 14t28 14.5t25.5 17.5t19 17.5t15.5 19.5t8.5 22.5t4 24.5q0 59 -66.5 92 t-161.5 33q-184 0 -303 -148z" glyph-name="two.inferior" horiz-adv-x="968"/><glyph d="M176 16q102 -143 311 -143q109 0 185 38t76 109q0 131 -271 132h-115v118h115q242 0 242 117q0 61 -69.5 91t-170.5 30q-184 0 -284 -129l-111 74q51 84 162.5 134t247.5 50q160 0 274.5 -60.5t114.5 -168.5q0 -78 -59.5 -132.5t-145.5 -60.5q98 -14 167.5 -66.5 t69.5 -144.5q0 -121 -118.5 -190.5t-302.5 -69.5q-143 0 -259 56.5t-178 150.5z" glyph-name="three.inferior" horiz-adv-x="993"/><glyph d="M977 90v-127h-164v-194h-154v194h-618v94l631 553h141v-520h164zM248 90h409v346z" glyph-name="four.inferior" horiz-adv-x="1030"/><glyph d="M152 12q141 -135 344 -135q121 0 193.5 42t72.5 118t-70.5 113.5t-191.5 37.5q-156 0 -293 -67l-115 47l78 442h672v-129h-553l-43 -248q129 78 303 78q162 0 268.5 -70.5t106.5 -203.5q0 -129 -107.5 -211t-306.5 -82q-264 0 -451 170z" glyph-name="five.inferior" horiz-adv-x="985"/><glyph d="M584 315q170 0 283.5 -69.5t113.5 -210.5q0 -129 -113.5 -210t-310.5 -81q-223 0 -351 120t-128 326.5t128 326.5t351 120q262 0 395 -145l-96 -91q-109 111 -285 111q-152 0 -241.5 -79t-89.5 -243v-22q55 72 149.5 109.5t194.5 37.5zM557 -129q119 0 190.5 42t71.5 118 q0 164 -262 164q-193 0 -303 -127q57 -197 303 -197z" glyph-name="six.inferior" horiz-adv-x="1048"/><glyph d="M229 -231l441 706h-631v135h823v-106l-452 -735h-181z" glyph-name="seven.inferior" horiz-adv-x="897"/><glyph d="M725 217q248 -37 248 -221q0 -113 -125 -182.5t-323.5 -69.5t-322.5 69.5t-124 182.5q0 184 244 221q-94 6 -153.5 59.5t-59.5 137.5q0 106 119.5 164.5t295.5 58.5t297 -58.5t121 -164.5q0 -84 -60.5 -137.5t-156.5 -59.5zM268 393q0 -125 258 -125q254 0 254 125 q0 61 -72.5 93t-181.5 32q-111 0 -184.5 -32t-73.5 -93zM522 -137q125 0 205 40t80 109q0 147 -285 148q-281 0 -280 -148q0 -70 78.5 -109.5t201.5 -39.5z" glyph-name="eight.inferior" horiz-adv-x="1048"/><glyph d="M481 635q223 0 351.5 -120t128.5 -326.5t-128 -326.5t-352 -120q-262 0 -395 145l96 90q109 -111 285 -110q152 0 242 79t90 242v23q-55 -72 -149.5 -110t-194.5 -38q-170 0 -284 70t-114 211q0 129 113.5 210t310.5 81zM481 184q193 0 303 127q-57 197 -303 197 q-119 0 -190.5 -42t-71.5 -118q0 -164 262 -164z" glyph-name="nine.inferior" horiz-adv-x="1048"/><glyph d="M561 -25q-225 0 -353 119t-128 328q0 207 129 326.5t352 119.5q225 0 353 -119.5t128 -326.5q0 -209 -128 -328t-353 -119zM561.5 115q149.5 0 234.5 79.5t85 227t-86 227.5t-234 80q-150 0 -234.5 -80t-84.5 -227.5t85 -227t234.5 -79.5z" glyph-name="zero.dnom" horiz-adv-x="1120"/><glyph d="M291 0v657q-88 -72 -244 -96v135q156 23 283 146h121v-842h-160z" glyph-name="one.dnom" horiz-adv-x="585"/><glyph d="M82 672q152 197 416 196q152 0 265.5 -67.5t113.5 -184.5q0 -100 -80 -166.5t-232 -123.5q-145 -55 -220 -97.5t-93 -95.5h643v-133h-832v84q37 221 406 354q14 6 41 16.5t39 15.5t34.5 14.5t33 14.5t28 14t25.5 17.5t19 17.5t15.5 19.5t8.5 22.5t4 24q0 59 -66.5 92 t-161.5 33q-184 0 -303 -147z" glyph-name="two.dnom" horiz-adv-x="968"/><glyph d="M176 248q102 -143 311 -144q109 0 185 38t76 110q0 131 -271 131h-115v119h115q242 0 242 116q0 61 -69.5 91t-170.5 30q-184 0 -284 -129l-111 74q51 84 162.5 134t247.5 50q160 0 274.5 -60t114.5 -169q0 -78 -59.5 -132t-145.5 -61q98 -14 167.5 -66t69.5 -144 q0 -121 -118.5 -191t-302.5 -70q-143 0 -259 56.5t-178 150.5z" glyph-name="three.dnom" horiz-adv-x="993"/><glyph d="M977 322v-127h-164v-195h-154v195h-618v94l631 553h141v-520h164zM248 322h409v346z" glyph-name="four.dnom" horiz-adv-x="1030"/><glyph d="M152 244q141 -135 344 -135q121 0 193.5 42t72.5 117.5t-70.5 113.5t-191.5 38q-156 0 -293 -68l-115 47l78 443h672v-129h-553l-43 -248q129 78 303 78q162 0 268.5 -71t106.5 -204q0 -129 -107.5 -211t-306.5 -82q-264 0 -451 170z" glyph-name="five.dnom" horiz-adv-x="985"/><glyph d="M584 547q170 0 283.5 -69.5t113.5 -211.5q0 -129 -113.5 -210t-310.5 -81q-223 0 -351 120t-128 327t128 326.5t351 119.5q262 0 395 -145l-96 -90q-109 111 -285 110q-152 0 -241.5 -78.5t-89.5 -242.5v-25q55 72 150.5 111t193.5 39zM557 102q119 0 190.5 42t71.5 118 q0 164 -262 164q-193 0 -303 -127q57 -197 303 -197z" glyph-name="six.dnom" horiz-adv-x="1048"/><glyph d="M229 0l441 707h-631v135h823v-107l-452 -735h-181z" glyph-name="seven.dnom" horiz-adv-x="897"/><glyph d="M725 449q248 -37 248 -222q0 -113 -125 -182.5t-323.5 -69.5t-322.5 70t-124 182q0 184 244 222q-94 6 -153.5 59t-59.5 137q0 106 119.5 164.5t295.5 58.5t297 -58t121 -165q0 -84 -60.5 -137t-156.5 -59zM268 625q0 -125 258 -125q254 0 254 125q0 61 -72.5 93 t-181.5 32q-111 0 -184.5 -32t-73.5 -93zM522 94q125 0 205 40t80 110q0 147 -285 147q-281 0 -280 -147q0 -70 78.5 -110t201.5 -40z" glyph-name="eight.dnom" horiz-adv-x="1048"/><glyph d="M481 866q223 0 351.5 -119.5t128.5 -326.5t-128 -327t-352 -120q-262 0 -395 146l96 90q109 -111 285 -111q152 0 242 79t90 243v22q-55 -72 -149.5 -109.5t-194.5 -37.5q-170 0 -284 69.5t-114 210.5q0 129 113.5 210t310.5 81zM481 416q193 0 303 127q-57 197 -303 196 q-119 0 -190.5 -42t-71.5 -117q0 -164 262 -164z" glyph-name="nine.dnom" horiz-adv-x="1048"/><glyph d="M561 567q-225 0 -353 119t-128 328q0 207 129 326.5t352 119.5q225 0 353 -119.5t128 -326.5q0 -209 -128 -328t-353 -119zM561.5 707q149.5 0 234.5 79.5t85 227t-86 227.5t-234 80q-150 0 -234.5 -80t-84.5 -227.5t85 -227t234.5 -79.5z" glyph-name="zero.numr" horiz-adv-x="1120"/><glyph d="M291 592v657q-88 -72 -244 -96v135q156 23 283 146h121v-842h-160z" glyph-name="one.numr" horiz-adv-x="585"/><glyph d="M82 1264q152 197 416 196q152 0 265.5 -67.5t113.5 -184.5q0 -100 -80 -166.5t-232 -123.5q-145 -55 -220 -97.5t-93 -95.5h643v-133h-832v84q37 221 406 354q14 6 41 16.5t39 15.5t34.5 14t33 14.5t28 14.5t25.5 17t19 17.5t15.5 19.5t8.5 22.5t4 24.5q0 59 -66.5 92 t-161.5 33q-184 0 -303 -147z" glyph-name="two.numr" horiz-adv-x="968"/><glyph d="M176 840q102 -143 311 -144q109 0 185 38t76 110q0 131 -271 131h-115v119h115q242 0 242 116q0 61 -69.5 91t-170.5 30q-184 0 -284 -129l-111 74q51 84 162.5 134t247.5 50q160 0 274.5 -60.5t114.5 -168.5q0 -78 -59.5 -132.5t-145.5 -60.5q98 -14 167.5 -66 t69.5 -145q0 -121 -118.5 -190.5t-302.5 -69.5q-143 0 -259 56.5t-178 150.5z" glyph-name="three.numr" horiz-adv-x="993"/><glyph d="M977 913v-127h-164v-194h-154v194h-618v95l631 553h141v-521h164zM248 913h409v347z" glyph-name="four.numr" horiz-adv-x="1030"/><glyph d="M152 836q141 -135 344 -136q121 0 193.5 42t72.5 118t-70.5 114t-191.5 38q-156 0 -293 -68l-115 47l78 443h672v-129h-553l-43 -248q129 78 303 78q162 0 268.5 -71t106.5 -204q0 -129 -107.5 -211t-306.5 -82q-264 0 -451 170z" glyph-name="five.numr" horiz-adv-x="985"/><glyph d="M584 1139q170 0 283.5 -70t113.5 -211q0 -129 -113.5 -210t-310.5 -81q-223 0 -351 120t-128 327t128 326.5t351 119.5q262 0 395 -145l-96 -90q-109 111 -285 110q-152 0 -241.5 -78.5t-89.5 -242.5v-23q55 72 149.5 110t194.5 38zM557 694q119 0 190.5 42t71.5 118 q0 164 -262 164q-193 0 -303 -127q57 -197 303 -197z" glyph-name="six.numr" horiz-adv-x="1048"/><glyph d="M229 592l441 706h-631v136h823v-107l-452 -735h-181z" glyph-name="seven.numr" horiz-adv-x="897"/><glyph d="M725 1040q248 -37 248 -221q0 -113 -125 -182.5t-323.5 -69.5t-322.5 70t-124 182q0 184 244 221q-94 6 -153.5 59.5t-59.5 137.5q0 106 119.5 164.5t295.5 58.5t297 -58.5t121 -164.5q0 -84 -60.5 -137.5t-156.5 -59.5zM268 1217q0 -125 258 -125q254 0 254 125 q0 61 -72.5 92.5t-181.5 31.5q-111 0 -184.5 -31.5t-73.5 -92.5zM522 686q125 0 205 40t80 110q0 147 -285 147q-281 0 -280 -147q0 -70 78.5 -110t201.5 -40z" glyph-name="eight.numr" horiz-adv-x="1048"/><glyph d="M481 1458q223 0 351.5 -119.5t128.5 -326.5t-128 -327t-352 -120q-262 0 -395 146l96 90q109 -111 285 -111q152 0 242 79t90 243v22q-55 -72 -149.5 -109.5t-194.5 -37.5q-170 0 -284 69.5t-114 210.5q0 129 113.5 210t310.5 81zM481 1008q193 0 303 127 q-57 197 -303 196q-119 0 -190.5 -42t-71.5 -118q0 -163 262 -163z" glyph-name="nine.numr" horiz-adv-x="1048"/><glyph d="M895 -41q-362 0 -569 177t-207 485q0 309 206.5 487t569.5 178q365 0 570.5 -178t205.5 -487q0 -307 -205.5 -484.5t-570.5 -177.5zM895 168q248 0 389 117.5t141 335.5q0 221 -141 338.5t-389 117.5q-250 0 -390 -117.5t-140 -338.5q0 -219 140 -336t390 -117z" glyph-name="zero.c2sc" horiz-adv-x="1789"/><glyph d="M471 0v975q-156 -113 -399 -150v205q238 33 456 215h185v-1245h-242z" glyph-name="one.c2sc" horiz-adv-x="921"/><glyph d="M129 983q82 133 254 217t403 84q256 0 441.5 -98.5t185.5 -274.5q0 -147 -133 -248.5t-381 -183.5q-238 -80 -359.5 -141.5t-150.5 -140.5h1051v-197h-1344v109q29 170 202 309t462 231q250 86 313 125q92 57 92 135q0 88 -111.5 135.5t-277.5 47.5q-311 0 -487 -228z " glyph-name="two.c2sc" horiz-adv-x="1554"/><glyph d="M262 373q104 -111 225 -165t297 -54q190 0 313.5 55t123.5 162q0 195 -453 194h-182v183h182q176 0 293 43t117 131q0 59 -60.5 98t-147.5 54.5t-198 15.5q-303 0 -477 -199l-170 113q211 281 663 280q260 0 448.5 -88t188.5 -244q0 -121 -97 -199.5t-243 -90.5 q162 -18 277 -98.5t115 -219.5q0 -182 -190.5 -282.5t-489.5 -100.5q-233 0 -416.5 82t-290.5 223z" glyph-name="three.c2sc" horiz-adv-x="1591"/><glyph d="M1573 465v-186h-273v-279h-235v279h-1006v149l1026 817h215v-780h273zM379 465h684v528z" glyph-name="four.c2sc" horiz-adv-x="1650"/><glyph d="M231 377q227 -215 576 -215q205 0 322.5 55t117.5 170t-120.5 172t-335.5 57q-238 0 -457 -88l-184 74l112 643h1096v-194h-907l-64 -357q217 109 490 109q262 0 439 -107.5t177 -312.5q0 -182 -179 -303t-507 -121q-436 0 -719 283z" glyph-name="five.c2sc" horiz-adv-x="1583"/><glyph d="M940 805q266 0 450.5 -102.5t184.5 -305.5q0 -195 -184.5 -316.5t-499.5 -121.5q-358 0 -565 179t-207 483q0 305 206.5 485t565.5 180q408 0 639 -215l-154 -141q-174 168 -465 168q-254 0 -400 -117t-146 -360q0 -29 2 -43q90 106 245.5 166.5t327.5 60.5zM891 143 q205 0 322.5 64.5t117.5 185.5q0 233 -432 234q-145 0 -282.5 -49.5t-225.5 -137.5q94 -297 500 -297z" glyph-name="six.c2sc" horiz-adv-x="1679"/><glyph d="M365 0l725 1042h-1035v203h1331v-162l-741 -1083h-280z" glyph-name="seven.c2sc" horiz-adv-x="1439"/><glyph d="M1186 662q150 -18 262.5 -100.5t112.5 -225.5q0 -168 -201 -272.5t-520 -104.5q-324 0 -523.5 104.5t-199.5 272.5q0 143 112.5 225t262.5 101q-135 12 -230.5 92t-95.5 200q0 154 195.5 243t478.5 89q281 0 475 -89t194 -243q0 -121 -93 -200.5t-230 -91.5zM410 924 q0 -182 428 -183q430 0 430 183q0 88 -123 134t-307 46q-182 0 -305 -46t-123 -134zM838 141q209 0 340 58.5t131 158.5q0 111 -127 164t-344 53q-215 0 -342 -53t-127 -164q0 -100 131 -158.5t338 -58.5z" glyph-name="eight.c2sc" horiz-adv-x="1677"/><glyph d="M776 1286q358 0 565 -179t207 -482q0 -305 -206.5 -485.5t-565.5 -180.5q-408 0 -639 215l154 141q174 -168 465 -168q254 0 400.5 117t146.5 361q0 29 -3 43q-90 -106 -245.5 -167t-327.5 -61q-266 0 -450.5 102.5t-184.5 305.5q0 195 184.5 316.5t499.5 121.5zM768 618 q145 0 282.5 49.5t225.5 139.5q-94 295 -500 295q-205 0 -322.5 -64.5t-117.5 -185.5q0 -234 432 -234z" glyph-name="nine.c2sc" horiz-adv-x="1679"/><glyph d="M281 590q-68 0 -112 40t-44 101q0 59 44 100t111.5 41t112.5 -40.5t45 -100.5q0 -61 -43.5 -101t-113.5 -40z" glyph-name="periodcentered.aalt" horiz-adv-x="563"/><glyph d="M395 504q-102 0 -170.5 63.5t-68.5 159.5q0 98 68.5 161.5t171 63.5t169 -63.5t66.5 -161.5q0 -96 -68 -159.5t-168 -63.5z" glyph-name="bullet.aalt" horiz-adv-x="788"/><glyph d="M324 1456q68 0 111.5 -40t43.5 -99q0 -61 -44 -102t-111.5 -41t-112.5 40.5t-45 102.5q0 59 44 99t114 40zM176 0l45 1004h205l43 -1004h-293z" glyph-name="exclamdown.case" horiz-adv-x="661"/><glyph d="M774 1462q70 0 114 -40t44 -99q0 -61 -45 -102t-112.5 -41t-112 41t-44.5 102q0 59 44 99t112 40zM877 1008v-375q-260 -20 -396.5 -75.5t-136.5 -172.5q0 -111 117 -164t287 -53q358 0 552 256l158 -131q-117 -152 -300 -240t-417 -88q-168 0 -311 44t-239.5 142.5 t-96.5 231.5q0 176 160 277.5t420 119.5v228h203z" glyph-name="questiondown.case" horiz-adv-x="1525"/><glyph d="M588 1083q0 -168 -85 -264t-227 -100q143 -8 227.5 -104.5t84.5 -262.5q0 -137 61.5 -215t171.5 -78h62v-182h-90q-190 0 -300 106.5t-110 313.5q0 203 -96.5 279.5t-257.5 76.5v129q162 0 258 77t96 280q0 207 109.5 312t300.5 105h90v-182h-62q-111 0 -172 -77 t-61 -214z" glyph-name="braceleft.aalt" horiz-adv-x="966"/><glyph d="M379 1083q0 137 -61.5 214t-172.5 77h-61v182h90q190 0 300 -105t110 -312q0 -203 96 -280t258 -77v-129q-162 0 -258 -76.5t-96 -279.5q0 -207 -109.5 -313.5t-300.5 -106.5h-90v182h61q111 0 172.5 78t61.5 215q0 166 84 262.5t227 104.5q-141 4 -226 100t-85 264z" glyph-name="braceright.aalt" horiz-adv-x="966"/><glyph d="M815 1374h-397v-1315h397v-182h-598v1679h598v-182z" glyph-name="bracketleft.aalt" horiz-adv-x="899"/><glyph d="M84 1374v182h598v-1679h-598v182h397v1315h-397z" glyph-name="bracketright.aalt" horiz-adv-x="899"/><glyph d="M324 717q0 -268 133 -455.5t358 -259.5l-72 -164q-283 74 -457.5 313.5t-174.5 565t175 565.5t457 313l72 -163q-225 -72 -358 -258.5t-133 -456.5z" glyph-name="parenleft.aalt" horiz-adv-x="899"/><glyph d="M575 717q0 270 -133 456.5t-358 258.5l72 163q283 -74 457.5 -313.5t174.5 -565t-175 -565t-457 -313.5l-72 164q225 72 358 259.5t133 455.5z" glyph-name="parenright.aalt" horiz-adv-x="899"/><glyph d="M1903 627h-1743v202h1743v-202z" glyph-name="emdash.aalt" horiz-adv-x="2064"/><glyph d="M1464 627h-1304v202h1304v-202z" glyph-name="endash.aalt" horiz-adv-x="1626"/><glyph d="M1067 627h-907v202h907v-202z" glyph-name="hyphen.aalt" horiz-adv-x="1226"/><glyph d="M514 1171h246l-434 -444l434 -442h-246l-432 442zM1010 1171h245l-434 -444l434 -442h-245l-432 442z" glyph-name="guillemotleft.aalt" horiz-adv-x="1366"/><glyph d="M356 1171l432 -444l-432 -442h-245l434 442l-434 444h245zM852 1171l432 -444l-432 -442h-246l434 442l-434 444h246z" glyph-name="guillemotright.aalt" horiz-adv-x="1366"/><glyph d="M514 1171h246l-434 -444l434 -442h-246l-432 442z" glyph-name="guilsinglleft.aalt" horiz-adv-x="870"/><glyph d="M356 1171l432 -444l-432 -442h-245l434 442l-434 444h245z" glyph-name="guilsinglright.aalt" horiz-adv-x="870"/><glyph d="M326 1450l983 -1655h-262l-986 1655h265z" glyph-name="backslash.aalt" horiz-adv-x="1329"/><glyph d="M195 1245h292l-43 -815h-204zM342 -23q-70 0 -114 40t-44 100q0 61 45 102t113 41t112 -41t44 -102q0 -59 -44 -99.5t-112 -40.5z" glyph-name="exclam.aalt" horiz-adv-x="679"/><glyph d="M324 1268q68 0 111.5 -40t43.5 -100q0 -61 -44 -102t-111.5 -41t-112.5 41t-45 102q0 59 44 99.5t114 40.5zM176 0l45 815h205l43 -815h-293z" glyph-name="exclamdown.c2sc" horiz-adv-x="661"/><glyph d="M1692 778h-314l-86 -289h338v-157h-385l-100 -332h-201l100 332h-471l-98 -332h-201l99 332h-271v157h318l86 289h-340v156h387l92 311h203l-94 -311h469l94 311h201l-93 -311h267v-156zM1092 489l86 289h-471l-86 -289h471z" glyph-name="numbersign.aalt" horiz-adv-x="1796"/><glyph d="M590 391v314q471 31 471 206q0 92 -102.5 137.5t-253.5 45.5q-311 0 -486 -215l-151 122q227 285 647 285q242 0 420 -97t178 -271q0 -154 -143.5 -242t-378.5 -103v-182h-201zM692 -23q-70 0 -113.5 40t-43.5 100q0 61 45 102t112.5 41t111.5 -41t44 -102 q0 -59 -44 -99.5t-112 -40.5z" glyph-name="question.aalt" horiz-adv-x="1400"/><glyph d="M709 1268q70 0 113.5 -40t43.5 -100q0 -61 -45 -102t-112.5 -41t-111.5 41t-44 102q0 59 44 99.5t112 40.5zM809 854v-313q-471 -31 -471 -207q0 -92 102.5 -137t253.5 -45q311 0 488 215l149 -123q-227 -285 -645 -285q-242 0 -420 97.5t-178 271.5q0 154 142.5 241.5 t377.5 102.5v182h201z" glyph-name="questiondown.c2sc" horiz-adv-x="1398"/><glyph d="M328 -205h-265l984 1655h264z" glyph-name="slash.c2sc" horiz-adv-x="1370"/><glyph d="M450.5 623q-161.5 0 -266 96t-104.5 235q0 141 104.5 237.5t266 96.5t265 -96t103.5 -238q0 -139 -103.5 -235t-265 -96zM1395 1260h198l-1104 -1260h-198zM450.5 770q92.5 0 149.5 49t57 135q0 88 -57 137.5t-149.5 49.5t-149.5 -49.5t-57 -137.5q0 -86 57 -135 t149.5 -49zM1434 -27q-162 0 -265.5 95.5t-103.5 236.5t103.5 236.5t265.5 95.5q164 0 267 -95.5t103 -236.5t-103 -236.5t-267 -95.5zM1433.5 119q92.5 0 149.5 49t57 137t-57 136t-149.5 48t-148.5 -49t-56 -135q0 -88 56 -137t148.5 -49z" glyph-name="percent.oldstyle" horiz-adv-x="1884"/><glyph d="M450.5 623q-161.5 0 -266 96t-104.5 235q0 141 104.5 237.5t266 96.5t265 -96t103.5 -238q0 -139 -103.5 -235t-265 -96zM1395 1260h198l-1104 -1260h-198zM450.5 770q92.5 0 149.5 49t57 135q0 88 -57 137.5t-149.5 49.5t-149.5 -49.5t-57 -137.5q0 -86 57 -135 t149.5 -49zM1434 -27q-162 0 -265.5 95.5t-103.5 236.5t103.5 236.5t265.5 95.5q164 0 267 -95.5t103 -236.5t-103 -236.5t-267 -95.5zM2257 -27q-162 0 -266.5 95.5t-104.5 236.5t104.5 236.5t266.5 95.5t265.5 -95.5t103.5 -236.5t-103.5 -236.5t-265.5 -95.5zM1433.5 119 q92.5 0 149.5 49t57 137t-57 136t-149.5 48t-148.5 -49t-56 -135q0 -88 56 -137t148.5 -49zM2257 119q92 0 149.5 49t57.5 137t-57.5 136t-149.5 48t-149.5 -48t-57.5 -136t57.5 -137t149.5 -49z" glyph-name="perthousand.oldstyle" horiz-adv-x="2707"/><glyph d="M203 -123v1679h223v-1679h-223z" glyph-name="bar.case" horiz-adv-x="626"/><glyph d="M203 885v671h223v-671h-223zM426 559v-682h-223v682h223z" glyph-name="brokenbar.case" horiz-adv-x="626"/><glyph d="M1595 61q-193 -104 -538 -104q-430 0 -687 212t-257 548t257 548t687 212q428 0 685 -214t257 -556q0 -209 -79 -334t-222 -125q-109 0 -188.5 65.5t-104.5 163.5q-66 -111 -183.5 -173t-263.5 -62q-215 0 -362 129t-147 350t147 349t362 128q145 0 259 -63.5t182 -173.5 l39 198h145v-569q0 -129 46 -187.5t106 -58.5q76 0 119.5 103.5t43.5 259.5q0 324 -233 499.5t-608 175.5t-608.5 -174t-233.5 -491.5t233.5 -491.5t608.5 -174q283 0 493 94zM1008 389q264 0 387 250v160q-123 248 -387 248q-164 0 -265.5 -83t-101.5 -245 q0 -164 101.5 -247t265.5 -83z" glyph-name="at.case" horiz-adv-x="2123"/><glyph d="M1003.5 1477q409.5 0 648 -207t238.5 -553t-238.5 -553t-648 -207t-648 207t-238.5 553t238.5 553t648 207zM1003.5 33q366.5 0 584.5 181t218 502.5t-218 503t-584.5 181.5t-585.5 -181.5t-219 -503t219 -502.5t585.5 -181zM1575 885q0 -123 -71.5 -200t-198.5 -105 l288 -349h-223l-258 330h-426v-330h-194v975h653q193 0 311.5 -81.5t118.5 -239.5zM686 1055v-344h444q123 0 185.5 38.5t62.5 131.5q0 174 -248 174h-444z" glyph-name="registered.case" horiz-adv-x="2007"/><glyph d="M1001 999v-178h-335v-821h-199v821h-332v178h332v435h199v-435h335z" glyph-name="dagger.case" horiz-adv-x="1138"/><glyph d="M1001 930h-335v-426h335v-176h-335v-328h-199v328h-332v176h332v426h-332v176h332v328h199v-328h335v-176z" glyph-name="daggerdbl.case" horiz-adv-x="1138"/><glyph d="M203 -205v1680h223v-1680h-223z" glyph-name="bar.c2sc" horiz-adv-x="626"/><glyph d="M203 803v672h223v-672h-223zM426 477v-682h-223v682h223z" glyph-name="brokenbar.c2sc" horiz-adv-x="626"/><glyph d="M1466 55q-180 -96 -493 -96q-391 0 -624.5 185.5t-233.5 476.5q0 293 233.5 479t624.5 186t625.5 -186.5t234.5 -478.5q0 -188 -71.5 -296t-202.5 -108q-98 0 -174 57.5t-101 147.5q-57 -100 -163.5 -154.5t-239.5 -54.5q-195 0 -329 110.5t-134 301t134 302t329 111.5 q133 0 236.5 -55t160.5 -156l41 181h137v-494q0 -113 39 -167t94 -54q72 0 112 93t40 235q0 279 -214 430t-554 151q-338 0 -552 -151.5t-214 -429.5q0 -274 214 -426t552 -152q260 0 450 90zM930 346q238 0 344 209v137q-109 209 -344 209q-147 0 -237.5 -71.5t-90.5 -207 t90.5 -206t237.5 -70.5z" glyph-name="at.c2sc" horiz-adv-x="1927"/><glyph d="M1686 0h-310l-112 80q-188 -115 -477 -115t-479.5 119t-190.5 297q0 109 71.5 197t200.5 137q-117 106 -117 225q0 152 137.5 248t362.5 96q416 0 590 -326l-201 -84q-61 117 -154.5 169.5t-230.5 52.5q-125 0 -194.5 -42t-69.5 -116q0 -57 41 -100t152 -123 q27 -18 38 -29l502 -364q80 106 86 268h217q-10 -231 -141 -387zM809 152q168 0 283 53l-566 405q-6 2 -14 11q-152 -82 -152 -213q0 -119 128 -187.5t321 -68.5z" glyph-name="ampersand.aalt" horiz-adv-x="1708"/><glyph d="M616 1245h998v-1245h-209v1059h-266v-1059h-209v406h-314q-250 0 -394 106t-144 313q0 205 144 312.5t394 107.5zM930 592v467h-305q-156 0 -245 -57.5t-89 -176t89 -176t245 -57.5h305z" glyph-name="paragraph.aalt" horiz-adv-x="1818"/><glyph d="M922 -39q-371 0 -590 181.5t-219 480.5q0 301 219 482t590 181q375 0 593 -181t218 -482t-219 -481.5t-592 -180.5zM921.5 31q331.5 0 532.5 156.5t201 435t-201 436.5t-532.5 158t-531.5 -158t-200 -436.5t200 -435t531.5 -156.5zM1423 397q-72 -104 -200.5 -166.5 t-304.5 -62.5q-246 0 -395.5 122t-149.5 335t149.5 336.5t395.5 123.5q174 0 301 -64.5t194 -166.5l-158 -74q-109 152 -321 152q-170 0 -270.5 -80t-100.5 -227q0 -145 100.5 -225.5t270.5 -80.5q215 0 326 154z" glyph-name="copyright.aalt" horiz-adv-x="1845"/><glyph d="M920 1286q375 0 593 -181t218 -484q0 -301 -219.5 -481.5t-591.5 -180.5q-371 0 -589 181.5t-218 480.5q0 303 218 484t589 181zM920 27q334 0 535.5 157.5t201.5 436.5q0 281 -202 440.5t-535 159.5q-332 0 -533 -160t-201 -440q0 -279 201 -436.5t533 -157.5zM1446 766 q0 -106 -65.5 -175t-180.5 -95l260 -297h-219l-229 280h-369v-280h-188v850h594q178 0 287.5 -73t109.5 -210zM643 899v-270h397q213 0 213 135t-213 135h-397z" glyph-name="registered.c2sc" horiz-adv-x="1843"/><glyph d="M920 -37q-371 0 -589 179.5t-218 478.5q0 303 218 483t589 180q375 0 593 -180t218 -483q0 -299 -218 -478.5t-593 -179.5zM920 29q334 0 535.5 156.5t201.5 435.5q0 281 -202 438.5t-535.5 157.5t-533.5 -158t-200 -438q0 -279 201 -435.5t533 -156.5zM1077 1049 q178 0 288 -75t110 -212q0 -141 -110 -214t-288 -73h-403v-276h-189v850h592zM1063 627q113 0 167 28.5t54 106.5t-55 107.5t-166 29.5h-389v-272h389z" glyph-name="uni2117.c2sc" horiz-adv-x="1843"/><glyph d="M1106 295q160 -72 160 -215q0 -145 -144.5 -238.5t-410.5 -93.5q-352 0 -605 195l123 129q207 -158 488 -158q145 0 238.5 37t93.5 104q0 70 -85 98.5t-278 43.5q-539 39 -539 297q0 166 187 260q-176 72 -176 221q0 145 151.5 227t395.5 82q150 0 289 -44t235 -112 l-117 -137q-174 123 -410 125q-326 4 -325 -127q0 -66 89 -92.5t269 -38.5q541 -39 541 -295q0 -174 -170 -268zM369 518q0 -70 91 -101.5t263 -45.5q51 -2 125 -11q94 20 151.5 65.5t57.5 100.5q0 72 -88 109t-267 49q-8 0 -26.5 1t-26.5 3q-121 -10 -200.5 -54t-79.5 -116 z" glyph-name="section.aalt" horiz-adv-x="1388"/><glyph d="M438.5 692q-145.5 0 -237.5 81t-92 210q0 127 92 208t237.5 81t237.5 -81t92 -208q0 -129 -92 -210t-237.5 -81zM438 819q88 0 137.5 44t49.5 120t-49.5 120t-137.5 44t-137 -44t-49 -120t49 -120t137 -44z" glyph-name="degree.aalt" horiz-adv-x="876"/><glyph d="M1270 385q-63 -104 -183 -173t-290 -81v-131h-144v131q-254 18 -396 146.5t-142 343.5q0 217 142 346t396 145v133h144v-131q334 -27 471 -252l-176 -78q-90 137 -295 154v-631q193 14 295 156zM322 621q0 -137 88 -216t243 -96v627q-156 -16 -243.5 -96t-87.5 -219z" glyph-name="cent.aalt" horiz-adv-x="1370"/><glyph d="M1329 633q0 -197 -123 -326l178 -170l-112 -104l-197 178q-131 -66 -309 -66q-182 0 -311 68l-195 -180l-115 104l179 170q-123 129 -123 326q0 176 102 301l-158 151l115 105l166 -152q139 82 340 82q195 0 340 -84l166 154l112 -105l-157 -149q102 -125 102 -303z M389 632.5q0 -153.5 101.5 -235.5t275.5 -82q172 0 273.5 82t101.5 235.5t-101.5 235.5t-273.5 82q-174 0 -275.5 -82t-101.5 -235.5z" glyph-name="currency.aalt" horiz-adv-x="1527"/><glyph d="M1001 829v-161h-339v-668h-189v668h-338v161h338v416h189v-416h339z" glyph-name="dagger.c2sc" horiz-adv-x="1138"/><glyph d="M1001 805h-339v-340h339v-154h-339v-311h-189v311h-338v154h338v340h-338v153h338v312h189v-312h339v-153z" glyph-name="daggerdbl.c2sc" horiz-adv-x="1138"/><glyph d="M1565 391q0 -176 -170 -280.5t-471 -112.5v-182h-144v184q-408 25 -688 248l144 147q236 -182 544 -207v355q-141 14 -244.5 35.5t-198.5 59.5t-145.5 101.5t-50.5 149.5q0 168 182.5 260t456.5 98v164h144v-166q350 -25 579 -201l-141 -141q-170 135 -438 154v-324 q125 -10 214 -23.5t175 -39t137 -60.5t83 -90t32 -129zM383 899q0 -74 96 -104.5t301 -49.5v316q-168 -4 -282.5 -42t-114.5 -120zM924 186q401 6 401 181q0 78 -90 109.5t-311 51.5v-342z" glyph-name="dollar.aalt" horiz-adv-x="1660"/><glyph d="M987 156q291 0 430 217l189 -101q-82 -137 -240 -224t-373 -87q-287 0 -471 129t-235 359h-197v108h180q-2 20 -2 65.5t2 65.5h-180v109h197q51 231 235.5 360t470.5 129q215 0 373 -87t240 -224l-189 -101q-139 217 -430 218q-180 0 -300 -76t-163 -219h690v-109h-712 q-2 -20 -2 -65t2 -66h712v-108h-690q45 -141 164 -217t299 -76z" glyph-name="Euro.aalt" horiz-adv-x="1710"/><glyph d="M309 1245h217l-198 -559h-215z" glyph-name="minute.aalt" horiz-adv-x="604"/><glyph d="M450.5 608q-161.5 0 -266 95.5t-104.5 236.5t104.5 236.5t266 95.5t265 -95.5t103.5 -236.5t-103.5 -236.5t-265 -95.5zM1395 1245h198l-1104 -1245h-198zM450.5 754q92.5 0 149.5 49t57 137t-57 137t-149.5 49t-149.5 -49t-57 -137t57 -137t149.5 -49zM1434 -27 q-162 0 -265.5 95.5t-103.5 236.5t103.5 236.5t265.5 95.5q164 0 267 -95.5t103 -236.5t-103 -236.5t-267 -95.5zM1433.5 119q92.5 0 149.5 49t57 137t-57 136t-149.5 48t-148.5 -49t-56 -135q0 -88 56 -137t148.5 -49z" glyph-name="percent.c2sc" horiz-adv-x="1884"/><glyph d="M450.5 608q-161.5 0 -266 95.5t-104.5 236.5t104.5 236.5t266 95.5t265 -95.5t103.5 -236.5t-103.5 -236.5t-265 -95.5zM1395 1245h198l-1104 -1245h-198zM450.5 754q92.5 0 149.5 49t57 137t-57 137t-149.5 49t-149.5 -49t-57 -137t57 -137t149.5 -49zM1434 -27 q-162 0 -265.5 95.5t-103.5 236.5t103.5 236.5t265.5 95.5q164 0 267 -95.5t103 -236.5t-103 -236.5t-267 -95.5zM2257 -27q-162 0 -266.5 95.5t-104.5 236.5t104.5 236.5t266.5 95.5t265.5 -95.5t103.5 -236.5t-103.5 -236.5t-265.5 -95.5zM1433.5 119q92.5 0 149.5 49 t57 137t-57 136t-149.5 48t-148.5 -49t-56 -135q0 -88 56 -137t148.5 -49zM2257 119q92 0 149.5 49t57.5 137t-57.5 136t-149.5 48t-149.5 -48t-57.5 -136t57.5 -137t149.5 -49z" glyph-name="perthousand.c2sc" horiz-adv-x="2707"/><glyph d="M1589 1077h-299q59 -74 74 -157h225v-168h-229q-27 -117 -120 -197t-234 -111l405 -444h-262l-381 424h-618v170h659q289 0 342 158h-1001v168h1001q-55 158 -342 157h-659v168h1439v-168z" glyph-name="uni20A8.c2sc" horiz-adv-x="1691"/><glyph d="M309 1245h217l-198 -559h-215zM715 1245h217l-199 -557h-217z" glyph-name="second.aalt" horiz-adv-x="1007"/><glyph d="M571 180h736v-180h-971h-225v180h225v365h-225v162h225v92q0 203 137 344t387 141q135 0 251 -47t181 -121l-108 -145q-125 121 -295 121q-158 0 -238 -84t-80 -232v-69h627v-162h-627v-365z" glyph-name="sterling.aalt" horiz-adv-x="1427"/><glyph d="M1540 1245l-514 -647h320v-113h-408l-14 -18v-100h422v-111h-422v-256h-242v256h-420v111h420v100l-14 18h-406v113h316l-515 647h279l463 -600l461 600h274z" glyph-name="yen.aalt" horiz-adv-x="1605"/><glyph d="M989 1104q-80 0 -134 -38t-62 -114l-27 -243h336l-15 -142h-335l-33 -305q-16 -139 -120.5 -220t-246.5 -81q-162 0 -274 64l63 153q74 -37 158 -37q174 0 193 152l30 274h-334l15 142h334l30 272q16 143 118.5 223t246.5 80q166 0 276 -65l-65 -152q-78 37 -154 37z" glyph-name="florin.aalt" horiz-adv-x="1282"/><glyph d="M1571 0l-156 295h-975l-155 -295h-267l777 1434h270l774 -1434h-268zM551 502h754l-377 717z" glyph-name="A.salt" horiz-adv-x="1857"/><glyph d="M1397 1915l-463 -318h-201l322 318h342zM1571 0l-156 295h-975l-155 -295h-267l777 1434h270l774 -1434h-268zM551 502h754l-377 717z" glyph-name="Aacute.salt" horiz-adv-x="1857"/><glyph d="M932 1585q-100 0 -176 34t-116 87t-59.5 106.5t-19.5 102.5h170q4 -70 57.5 -121t143.5 -51q86 0 139 52t57 120h172q0 -49 -19 -102.5t-59 -106.5t-116 -87t-174 -34zM1571 0l-156 295h-975l-155 -295h-267l777 1434h270l774 -1434h-268zM551 502h754l-377 717z" glyph-name="Abreve.salt" horiz-adv-x="1857"/><glyph d="M928 1800l-201 -203h-242l316 318h256l317 -318h-244zM1571 0l-156 295h-975l-155 -295h-267l777 1434h270l774 -1434h-268zM551 502h754l-377 717z" glyph-name="Acircumflex.salt" horiz-adv-x="1857"/><glyph d="M657 1616q-57 0 -95 33.5t-38 83.5q0 51 38 84.5t95.5 33.5t95.5 -33.5t38 -84.5q0 -49 -39.5 -83t-94.5 -34zM1202 1616q-57 0 -95 33.5t-38 83.5q0 51 38 84.5t95.5 33.5t95 -33.5t37.5 -84.5q0 -49 -39 -83t-94 -34zM1571 0l-156 295h-975l-155 -295h-267l777 1434 h270l774 -1434h-268zM551 502h754l-377 717z" glyph-name="Adieresis.salt" horiz-adv-x="1857"/><glyph d="M1126 1597h-200l-463 318h344zM1571 0l-156 295h-975l-155 -295h-267l777 1434h270l774 -1434h-268zM551 502h754l-377 717z" glyph-name="Agrave.salt" horiz-adv-x="1857"/><glyph d="M1350 1823v-181h-840v181h840zM1571 0l-156 295h-975l-155 -295h-267l777 1434h270l774 -1434h-268zM551 502h754l-377 717z" glyph-name="Amacron.salt" horiz-adv-x="1857"/><glyph d="M1901 -348l47 -66q-92 -92 -246 -92q-117 0 -202 55.5t-85 163.5q0 96 63.5 173t174.5 114h-82l-156 295h-975l-155 -295h-267l777 1434h270l774 -1434h-2q-100 -39 -171 -111.5t-71 -156.5q0 -63 43 -97t111 -34q84 0 152 51zM551 502h754l-377 717z" glyph-name="Aogonek.salt" horiz-adv-x="1857"/><glyph d="M930 1581q-125 0 -205 59.5t-80 168t80 169t205 60.5t204.5 -60.5t79.5 -169t-79.5 -168t-204.5 -59.5zM929.5 1927q-61.5 0 -97 -31.5t-35.5 -87.5q0 -57 35.5 -87.5t97 -30.5t98.5 30.5t37 87.5q0 55 -37 87t-98.5 32zM1571 0l-156 295h-975l-155 -295h-267l777 1434 h270l774 -1434h-268zM551 502h754l-377 717z" glyph-name="Aring.salt" horiz-adv-x="1857"/><glyph d="M930 1581q-125 0 -205 59.5t-80 167.5q0 106 78 168l235 254h252l-245 -194q113 -8 181 -67.5t68 -160.5q0 -109 -79.5 -168t-204.5 -59zM1065 1808q0 55 -37 87t-98.5 32t-97 -31.5t-35.5 -87.5q0 -57 35.5 -87.5t97 -30.5t98.5 30.5t37 87.5zM1571 0l-156 295h-975 l-155 -295h-267l777 1434h270l774 -1434h-268zM551 502h754l-377 717z" glyph-name="Aringacute.salt" horiz-adv-x="1857"/><glyph d="M715 1735q-72 0 -115 -26t-82 -75l-123 121q45 70 127 119t191 49q90 0 221 -57.5t211 -57.5q70 0 112.5 26t81.5 75l125 -123q-45 -68 -127 -117t-190 -49q-92 0 -223 57.5t-209 57.5zM1571 0l-156 295h-975l-155 -295h-267l777 1434h270l774 -1434h-268zM551 502h754 l-377 717z" glyph-name="Atilde.salt" horiz-adv-x="1857"/><glyph d="M1585 215h1184v-215h-1430v289h-819l-248 -289h-292l1251 1434h141h1376v-215h-1163v-445h979v-213h-979v-346zM692 487h647v750z" glyph-name="AE.salt" horiz-adv-x="2873"/><glyph d="M2392 1915l-463 -318h-200l321 318h342zM1585 215h1184v-215h-1430v289h-819l-248 -289h-292l1251 1434h141h1376v-215h-1163v-445h979v-213h-979v-346zM692 487h647v750z" glyph-name="AEacute.salt" horiz-adv-x="2873"/><glyph d="M461 215h1184v-215h-1428v1434h1407v-215h-1163v-445h979v-213h-979v-346z" glyph-name="E.salt" horiz-adv-x="1748"/><glyph d="M1380 1915l-465 -318h-200l321 318h344zM461 215h1184v-215h-1428v1434h1407v-215h-1163v-445h979v-213h-979v-346z" glyph-name="Eacute.salt" horiz-adv-x="1748"/><glyph d="M1284 1915q0 -49 -19.5 -102.5t-59.5 -106.5t-116.5 -87t-175.5 -34q-100 0 -175.5 34t-115.5 87t-59.5 106.5t-19.5 102.5h172q4 -70 56 -121t142 -51q88 0 140.5 51t56.5 121h174zM461 215h1184v-215h-1428v1434h1407v-215h-1163v-445h979v-213h-979v-346z" glyph-name="Ebreve.salt" horiz-adv-x="1748"/><glyph d="M467 1915h242l202 -203l203 203h242l-316 -318h-258zM461 215h1184v-215h-1428v1434h1407v-215h-1163v-445h979v-213h-979v-346z" glyph-name="Ecaron.salt" horiz-adv-x="1748"/><glyph d="M467 1597l315 318h258l316 -318h-244l-203 203l-200 -203h-242zM461 215h1184v-215h-1428v1434h1407v-215h-1163v-445h979v-213h-979v-346z" glyph-name="Ecircumflex.salt" horiz-adv-x="1748"/><glyph d="M639 1616q-57 0 -95 33.5t-38 83.5q0 51 38 84.5t95 33.5t95 -33.5t38 -84.5q0 -49 -39 -83t-94 -34zM1184 1616q-57 0 -95 33.5t-38 83.5q0 51 37.5 84.5t95 33.5t95.5 -33.5t38 -84.5q0 -49 -39 -83t-94 -34zM461 215h1184v-215h-1428v1434h1407v-215h-1163v-445h979 v-213h-979v-346z" glyph-name="Edieresis.salt" horiz-adv-x="1748"/><glyph d="M911 1616q-57 0 -91 29.5t-34 76.5q0 51 34 81t91 30q55 0 89 -29.5t34 -81.5q0 -47 -34 -76.5t-89 -29.5zM461 215h1184v-215h-1428v1434h1407v-215h-1163v-445h979v-213h-979v-346z" glyph-name="Edotaccent.salt" horiz-adv-x="1748"/><glyph d="M444 1915h344l320 -318h-201zM461 215h1184v-215h-1428v1434h1407v-215h-1163v-445h979v-213h-979v-346z" glyph-name="Egrave.salt" horiz-adv-x="1748"/><glyph d="M492 1823h839v-181h-839v181zM461 215h1184v-215h-1428v1434h1407v-215h-1163v-445h979v-213h-979v-346z" glyph-name="Emacron.salt" horiz-adv-x="1748"/><glyph d="M1706 -348l49 -66q-92 -92 -246 -92q-119 0 -203.5 55.5t-84.5 163.5q0 96 64.5 173t174.5 114h-1243v1434h1407v-215h-1163v-445h979v-213h-979v-346h1184v-215h-3q-100 -37 -169.5 -110.5t-69.5 -157.5q0 -63 43 -97t108 -34q84 0 152 51z" glyph-name="Eogonek.salt" horiz-adv-x="1748"/><glyph d="M1620 1217h-1157v-484h979v-219h-979v-514h-246v1434h1403v-217z" glyph-name="F.salt" horiz-adv-x="1685"/><glyph d="M1829 719v-397q-102 -164 -313 -264.5t-496 -100.5q-424 0 -663.5 202.5t-239.5 557t239.5 557.5t659.5 203q471 0 737 -285l-201 -143q-188 213 -534 213q-307 0 -479 -139.5t-172 -405.5t175 -405.5t488 -139.5q416 0 561 229v107h-598v211h836z" glyph-name="G.salt" horiz-adv-x="1943"/><glyph d="M1384 1917q0 -49 -19 -102.5t-59 -106.5t-116 -87t-176.5 -34t-176 34t-115.5 87t-59.5 106.5t-19.5 102.5h172q4 -70 57.5 -121t141.5 -51t141 52t57 120h172zM1829 719v-397q-102 -164 -313 -264.5t-496 -100.5q-424 0 -663.5 202.5t-239.5 557t239.5 557.5t659.5 203 q471 0 737 -285l-201 -143q-188 213 -534 213q-307 0 -479 -139.5t-172 -405.5t175 -405.5t488 -139.5q416 0 561 229v107h-598v211h836z" glyph-name="Gbreve.salt" horiz-adv-x="1943"/><glyph d="M567 1599l318 318h256l315 -318h-242l-204 203l-201 -203h-242zM1829 719v-397q-102 -164 -313 -264.5t-496 -100.5q-424 0 -663.5 202.5t-239.5 557t239.5 557.5t659.5 203q471 0 737 -285l-201 -143q-188 213 -534 213q-307 0 -479 -139.5t-172 -405.5t175 -405.5 t488 -139.5q416 0 561 229v107h-598v211h836z" glyph-name="Gcircumflex.salt" horiz-adv-x="1943"/><glyph d="M1829 719v-397q-102 -164 -313 -264.5t-496 -100.5q-424 0 -663.5 202.5t-239.5 557t239.5 557.5t659.5 203q471 0 737 -285l-201 -143q-188 213 -534 213q-307 0 -479 -139.5t-172 -405.5t175 -405.5t488 -139.5q416 0 561 229v107h-598v211h836zM1014 -115 q72 0 117 -48t45 -122q0 -96 -56.5 -209.5t-156.5 -191.5l-62 65q125 131 143 234q-10 -10 -38 -10q-61 0 -103.5 41t-42.5 102q0 59 44 99t110 40z" glyph-name="Gcommaaccent.salt" horiz-adv-x="1943"/><glyph d="M1011.5 1618q-55.5 0 -90 29.5t-34.5 76.5q0 51 34.5 81t90 30t90.5 -29.5t35 -81.5q0 -47 -35 -76.5t-90.5 -29.5zM1829 719v-397q-102 -164 -313 -264.5t-496 -100.5q-424 0 -663.5 202.5t-239.5 557t239.5 557.5t659.5 203q471 0 737 -285l-201 -143 q-188 213 -534 213q-307 0 -479 -139.5t-172 -405.5t175 -405.5t488 -139.5q416 0 561 229v107h-598v211h836z" glyph-name="Gdotaccent.salt" horiz-adv-x="1943"/><glyph d="M1546 1434h246v-1434h-246v545h-1083v-545h-246v1434h246v-668h1083v668z" glyph-name="H.salt" horiz-adv-x="2007"/><glyph d="M2052 1155v-137h-217v-1018h-246v545h-1083v-545h-246v1018h-219v137h219v279h246v-279h1083v279h246v-279h217zM1589 766v252h-1083v-252h1083z" glyph-name="Hbar.salt" horiz-adv-x="2091"/><glyph d="M559 1599l315 318h256l318 -318h-244l-203 203l-200 -203h-242zM1546 1434h246v-1434h-246v545h-1083v-545h-246v1434h246v-668h1083v668z" glyph-name="Hcircumflex.salt" horiz-adv-x="2007"/><glyph d="M1716 215h1186v-215h-1429h-484q-401 0 -636.5 192.5t-235.5 524.5t235.5 524.5t636.5 192.5h725h1168v-215h-1166v-445h981v-213h-981v-346zM1473 213v1008h-465q-293 0 -467 -129t-174 -375t174 -375t467 -129h465z" glyph-name="OE.salt" horiz-adv-x="3004"/><glyph d="M1186 1434q260 0 419.5 -142.5t159.5 -367.5q0 -227 -159.5 -368.5t-419.5 -141.5h-723v-414h-246v1434h969zM1165 625q158 0 253 79.5t95 217t-94 217.5t-254 80h-702v-594h702z" glyph-name="P.salt" horiz-adv-x="1841"/><glyph d="M1190 1239q254 0 414.5 -141.5t160.5 -366.5q0 -227 -159.5 -368.5t-415.5 -141.5h-727v-221h-246v1434h246v-195h727zM1171 430q156 0 249 81t93 220q0 137 -93 218t-249 81h-708v-600h708z" glyph-name="Thorn.salt" horiz-adv-x="1841"/><glyph d="M1898 717q0 -330 -207.5 -529.5t-576.5 -228.5v-256h-213v256q-369 27 -576.5 226.5t-207.5 531.5q0 354 238.5 557t652 203t652 -203t238.5 -557zM1114 180q250 25 391.5 164t141.5 373q0 258 -172 400.5t-467 142.5t-468 -142.5t-173 -400.5q0 -233 142 -373.5 t392 -165.5v305h213v-303z" glyph-name="Q.salt" horiz-adv-x="2015"/><glyph d="M1810 0h-305l-375 438h-667v-438h-246v1434h975q252 0 416 -138.5t164 -359.5q0 -170 -100.5 -295t-270.5 -174zM461 649h715q156 0 250 77t94 208t-94.5 208t-249.5 77h-715v-570z" glyph-name="R.salt" horiz-adv-x="1900"/><glyph d="M1380 1915l-462 -318h-201l321 318h342zM1810 0h-305l-375 438h-667v-438h-246v1434h975q252 0 416 -138.5t164 -359.5q0 -170 -100.5 -295t-270.5 -174zM461 649h715q156 0 250 77t94 208t-94.5 208t-249.5 77h-715v-570z" glyph-name="Racute.salt" horiz-adv-x="1900"/><glyph d="M1040 1597h-256l-317 318h244l202 -203l201 203h244zM1810 0h-305l-375 438h-667v-438h-246v1434h975q252 0 416 -138.5t164 -359.5q0 -170 -100.5 -295t-270.5 -174zM461 649h715q156 0 250 77t94 208t-94.5 208t-249.5 77h-715v-570z" glyph-name="Rcaron.salt" horiz-adv-x="1900"/><glyph d="M1810 0h-305l-375 438h-667v-438h-246v1434h975q252 0 416 -138.5t164 -359.5q0 -170 -100.5 -295t-270.5 -174zM461 649h715q156 0 250 77t94 208t-94.5 208t-249.5 77h-715v-570zM956 -115q72 0 117 -48t45 -122q0 -96 -56 -209.5t-157 -191.5l-61 65q125 131 143 234 q-10 -10 -39 -10q-61 0 -103 41t-42 102q0 59 43.5 99t109.5 40z" glyph-name="Rcommaaccent.salt" horiz-adv-x="1900"/><glyph d="M1425 0l-137 250h-860l-137 -250h-264l702 1245h264l699 -1245h-267zM535 444h647l-324 586z" glyph-name="A.c2sc.salt" horiz-adv-x="1718"/><glyph d="M1329 1726l-463 -317h-200l319 317h344zM1425 0l-137 250h-860l-137 -250h-264l702 1245h264l699 -1245h-267zM535 444h647l-324 586z" glyph-name="Aacute.c2sc.salt" horiz-adv-x="1718"/><glyph d="M862 1397q-100 0 -176 33.5t-116 87t-59 106.5t-19 102h172q4 -70 56 -121t142 -51q88 0 141.5 51.5t55.5 120.5h174q0 -49 -19.5 -102t-59.5 -106.5t-117 -87t-175 -33.5zM1425 0l-137 250h-860l-137 -250h-264l702 1245h264l699 -1245h-267zM535 444h647l-324 586z" glyph-name="Abreve.c2sc.salt" horiz-adv-x="1718"/><glyph d="M858 1612l-201 -203h-241l317 317h256l316 -317h-242zM1425 0l-137 250h-860l-137 -250h-264l702 1245h264l699 -1245h-267zM535 444h647l-324 586z" glyph-name="Acircumflex.c2sc.salt" horiz-adv-x="1718"/><glyph d="M587.5 1427q-57.5 0 -95 34t-37.5 83q0 51 37.5 85t95 34t95.5 -34t38 -85q0 -49 -38 -83t-95.5 -34zM1132.5 1427q-57.5 0 -95.5 34t-38 83q0 51 38 85t95.5 34t95.5 -34t38 -85q0 -49 -38 -83t-95.5 -34zM1425 0l-137 250h-860l-137 -250h-264l702 1245h264l699 -1245 h-267zM535 444h647l-324 586z" glyph-name="Adieresis.c2sc.salt" horiz-adv-x="1718"/><glyph d="M1057 1409h-201l-463 317h344zM1425 0l-137 250h-860l-137 -250h-264l702 1245h264l699 -1245h-267zM535 444h647l-324 586z" glyph-name="Agrave.c2sc.salt" horiz-adv-x="1718"/><glyph d="M1280 1634v-180h-840v180h840zM1425 0l-137 250h-860l-137 -250h-264l702 1245h264l699 -1245h-267zM535 444h647l-324 586z" glyph-name="Amacron.c2sc.salt" horiz-adv-x="1718"/><glyph d="M1753 -348l49 -66q-92 -92 -246 -92q-119 0 -203.5 55.5t-84.5 163.5q0 96 64.5 173t174.5 114h-82l-137 250h-860l-137 -250h-264l702 1245h264l699 -1245h-2q-100 -37 -170 -110.5t-70 -157.5q0 -63 43 -97t109 -34q83 0 151 51zM535 444h647l-324 586z" glyph-name="Aogonek.c2sc.salt" horiz-adv-x="1718"/><glyph d="M860 1393q-125 0 -205 59t-80 168t80 168t205 59t206 -59t81 -168t-81 -168t-206 -59zM862 1737q-61 0 -98 -31t-37 -86q0 -57 37 -88t98 -31q59 0 96 31t37 88q0 55 -37 86t-96 31zM1425 0l-137 250h-860l-137 -250h-264l702 1245h264l699 -1245h-267zM535 444h647 l-324 586z" glyph-name="Aring.c2sc.salt" horiz-adv-x="1718"/><glyph d="M860 1393q-125 0 -205 59t-80 168q0 104 80 168l236 252h250l-246 -195q113 -8 182.5 -66.5t69.5 -158.5q0 -109 -81 -168t-206 -59zM995 1620q0 55 -36.5 86t-96.5 31q-61 0 -98 -31t-37 -86q0 -57 37 -88t98 -31q59 0 96 31t37 88zM1425 0l-137 250h-860l-137 -250 h-264l702 1245h264l699 -1245h-267zM535 444h647l-324 586z" glyph-name="Aringacute.c2sc.salt" horiz-adv-x="1718"/><glyph d="M647 1546q-117 0 -198 -100l-123 121q45 68 127 118t190 50q92 0 223 -57.5t209 -57.5q72 0 115 25.5t82 74.5l123 -123q-45 -68 -127 -116.5t-191 -48.5q-92 0 -223 57t-207 57zM1425 0l-137 250h-860l-137 -250h-264l702 1245h264l699 -1245h-267zM535 444h647 l-324 586z" glyph-name="Atilde.c2sc.salt" horiz-adv-x="1718"/><glyph d="M1466 207h1067v-207h-1308v281h-701l-254 -281h-282l1126 1245h141h1258v-205h-1047v-346h867v-200h-867v-287zM700 477h525v582z" glyph-name="ae.aalt.aalt" horiz-adv-x="2641"/><glyph d="M2220 1726l-463 -317h-201l320 317h344zM1466 207h1067v-207h-1308v281h-701l-254 -281h-282l1126 1245h141h1258v-205h-1047v-307h867v-203h-867v-323zM700 477h525v582z" glyph-name="aeacute.aalt.aalt" horiz-adv-x="2641"/><glyph d="M449 207h1064v-207h-1306v1245h1288v-207h-1046v-344h874v-202h-874v-285z" glyph-name="e.aalt.aalt"/><glyph d="M1311 1726l-463 -317h-201l320 317h344zM449 207h1064v-207h-1306v1245h1288v-207h-1046v-344h874v-202h-874v-285z" glyph-name="eacute.aalt.aalt"/><glyph d="M1214 1726q0 -49 -19 -102t-59 -106.5t-116 -87t-176.5 -33.5t-176 33.5t-115.5 87t-59.5 106.5t-19.5 102h172q4 -70 57.5 -121t141.5 -51t141 51.5t57 120.5h172zM449 207h1064v-207h-1306v1245h1288v-207h-1046v-344h874v-202h-874v-285z" glyph-name="ebreve.aalt.aalt"/><glyph d="M397 1726h242l203 -202l202 202h244l-317 -317h-256zM449 207h1064v-207h-1306v1245h1288v-207h-1046v-344h874v-202h-874v-285z" glyph-name="ecaron.aalt.aalt"/><glyph d="M397 1409l318 317h256l317 -317h-244l-204 203l-201 -203h-242zM449 207h1064v-207h-1306v1245h1288v-207h-1046v-344h874v-202h-874v-285z" glyph-name="ecircumflex.aalt.aalt"/><glyph d="M571 1427q-59 0 -97 34t-38 83q0 51 38 85t97 34q57 0 94 -34t37 -85q0 -49 -37 -83t-94 -34zM1116.5 1427q-57.5 0 -96.5 34t-39 83q0 51 39 85t96.5 34t95 -34t37.5 -85q0 -49 -37.5 -83t-95 -34zM449 207h1064v-207h-1306v1245h1288v-207h-1046v-344h874v-202h-874 v-285z" glyph-name="edieresis.aalt.aalt"/><glyph d="M841.5 1427q-55.5 0 -90 29t-34.5 78q0 51 34.5 81t90 30t90.5 -30t35 -81q0 -49 -35 -78t-90.5 -29zM449 207h1064v-207h-1306v1245h1288v-207h-1046v-344h874v-202h-874v-285z" glyph-name="edotaccent.aalt.aalt"/><glyph d="M377 1726h344l319 -317h-200zM449 207h1064v-207h-1306v1245h1288v-207h-1046v-344h874v-202h-874v-285z" glyph-name="egrave.aalt.aalt"/><glyph d="M424 1634h838v-180h-838v180zM449 207h1064v-207h-1306v1245h1288v-207h-1046v-344h874v-202h-874v-285z" glyph-name="emacron.aalt.aalt"/><glyph d="M1573 -348l49 -66q-92 -92 -246 -92q-119 0 -204 55.5t-85 163.5q0 96 65 173t175 114h-1120v1245h1288v-207h-1046v-344h874v-202h-874v-285h1064v-207h-4q-100 -37 -169.5 -110.5t-69.5 -157.5q0 -63 43 -97t108 -34q84 0 152 51z" glyph-name="eogonek.aalt.aalt"/><glyph d="M1491 1036h-1042v-395h876v-209h-876v-432h-242v1245h1284v-209z" glyph-name="f.aalt.aalt" horiz-adv-x="1558"/><glyph d="M2007 0h-242v1245h242v-1245zM1491 1036h-1042v-395h876v-209h-876v-432h-242v1245h1284v-209z" glyph-name="uniFB01.aalt.aalt" horiz-adv-x="2213"/><glyph d="M2007 213h950v-213h-1192v1245h242v-1032zM1491 1036h-1042v-395h876v-209h-876v-432h-242v1245h1284v-209z" glyph-name="uniFB02.aalt.aalt" horiz-adv-x="3010"/><glyph d="M1675 631v-350q-92 -145 -285.5 -233.5t-451.5 -88.5q-385 0 -605 177t-220 485q0 311 220 488t605 177q434 0 676 -242l-201 -143q-168 176 -465 176q-281 0 -434.5 -116.5t-153.5 -339.5q0 -221 155 -338t433 -117q367 0 494 190v86h-529v189h762z" glyph-name="g.aalt.aalt" horiz-adv-x="1792"/><glyph d="M1305 1729q0 -49 -19.5 -102.5t-59.5 -107t-117 -87t-175 -33.5q-100 0 -176 33.5t-116 87t-59.5 106.5t-19.5 103h172q4 -70 57.5 -121.5t141.5 -51.5t141 51.5t58 121.5h172zM1675 631v-350q-92 -145 -285.5 -233.5t-451.5 -88.5q-385 0 -605 177t-220 485 q0 311 220 488t605 177q434 0 676 -242l-201 -143q-168 176 -465 176q-281 0 -434.5 -116.5t-153.5 -339.5q0 -221 155 -338t433 -117q367 0 494 190v86h-529v189h762z" glyph-name="gbreve.aalt.aalt" horiz-adv-x="1792"/><glyph d="M487 1411l318 318h256l315 -318h-241l-205 203l-201 -203h-242zM1675 631v-350q-92 -145 -285.5 -233.5t-451.5 -88.5q-385 0 -605 177t-220 485q0 311 220 488t605 177q434 0 676 -242l-201 -143q-168 176 -465 176q-281 0 -434.5 -116.5t-153.5 -339.5q0 -221 155 -338 t433 -117q367 0 494 190v86h-529v189h762z" glyph-name="gcircumflex.aalt.aalt" horiz-adv-x="1792"/><glyph d="M1675 631v-350q-92 -145 -285.5 -233.5t-451.5 -88.5q-385 0 -605 177t-220 485q0 311 220 488t605 177q434 0 676 -242l-201 -143q-168 176 -465 176q-281 0 -434.5 -116.5t-153.5 -339.5q0 -221 155 -338t433 -117q367 0 494 190v86h-529v189h762zM934 -115 q72 0 117 -48t45 -122q0 -96 -56.5 -209.5t-156.5 -191.5l-62 65q125 131 144 234q-10 -10 -39 -10q-61 0 -103.5 41t-42.5 102q0 59 44 99t110 40z" glyph-name="gcommaaccent.aalt.aalt" horiz-adv-x="1792"/><glyph d="M932 1430q-55 0 -90 28.5t-35 77.5q0 51 35 81t90 30t90 -30t35 -81q0 -49 -35 -77.5t-90 -28.5zM1675 631v-350q-92 -145 -285.5 -233.5t-451.5 -88.5q-385 0 -605 177t-220 485q0 311 220 488t605 177q434 0 676 -242l-201 -143q-168 176 -465 176 q-281 0 -434.5 -116.5t-153.5 -339.5q0 -221 155 -338t433 -117q367 0 494 190v86h-529v189h762z" glyph-name="gdotaccent.aalt.aalt" horiz-adv-x="1792"/></font>
</defs>
</svg>
